Robocop [WebRip][VOSE][2014]




Este remake de 'RoboCop' se sitúa en la Detroit del año 2028, que está controlada por la multinacional robótica OmniCorp. Los drones que se fabrican allí se utilizan por el ejército, lo que reporta millones de dólares a la empresa. Ahora, OmniCorp tiene la ocasión de utilizar esta polémica tecnología para una buena causa: convertir en un robot a un hombre que quedó amputado y desfigurado después de un brutal asalto (Joel Kinnaman). Pero cuando OmniCorp decide sacar rédito de su invento, el héroe tomará su propio camino y perseguirá el objetivo de hacer justicia con sus propios métodos.



Título: RoboCop
Título original: RoboCop
Dirección: José Padilha
País: Estados Unidos
Año: 2014
Fecha de estreno: 14/02/2014
Duración: 118 min
Género: Acción, Ciencia ficción
Calificación: No recomendada para menores de 12 años
Reparto: Joel Kinnaman, Gary Oldman, Michael Keaton, Samuel L. Jackson, Jay Baruchel, Abbie Cornish, Jackie Earle Haley, Jennifer Ehle, Marianne Jean-Baptiste
Web: www.robocop.com/site/
Distribuidora: Sony Pictures
Productora: Metro-Goldwyn-Mayer (MGM), Columbia Pictures, Strike Entertainment

General
Format                                   : AVI
Format/Info                              : Audio Video Interleave
File size                                : 1 001 MiB
Duration                                 : 1h 48mn
Overall bit rate                         : 1 292 Kbps
Writing application                      : Lavf52.84.0

Video
ID                                       : 0
Format                                   : MPEG-4 Visual
Format profile                           : [email protected]
Format settings, BVOP                    : No
Format settings, QPel                    : No
Format settings, GMC                     : No warppoints
Format settings, Matrix                  : Default (H.263)
Codec ID                                 : XVID
Codec ID/Hint                            : XviD
Duration                                 : 1h 48mn
Bit rate                                 : 1 150 Kbps
Width                                    : 640 pixels
Height                                   : 272 pixels
Display aspect ratio                     : 2.35:1
Frame rate                               : 29.970 fps
Color space                              : YUV
Chroma subsampling                       : 4:2:0
Bit depth                                : 8 bits
Scan type                                : Progressive
Compression mode                         : Lossy
Bits/(Pixel*Frame)                       : 0.220
Stream size                              : 891 MiB (89%)
Writing library                          : Lavc52.97.0

Audio
ID                                       : 1
Format                                   : MPEG Audio
Format version                           : Version 1
Format profile                           : Layer 3
Mode                                     : Joint stereo
Mode extension                           : MS Stereo
Codec ID                                 : 55
Codec ID/Hint                            : MP3
Duration                                 : 1h 48mn
Bit rate mode                            : Constant
Bit rate                                 : 128 Kbps
Channel(s)                               : 2 channels
Sampling rate                            : 48.0 KHz
Compression mode                         : Lossy
Stream size                              : 99.2 MiB (10%)
Alignment                                : Aligned on interleaves
Interleave, duration                     : 24 ms (0.72 video frame)
Writing library                          : LAME3.98.4






http://www44.zippyshare.com/v/98243428/file.html
http://www30.zippyshare.com/v/79405901/file.html
http://www22.zippyshare.com/v/55530364/file.html
http://www36.zippyshare.com/v/94098839/file.html
http://www50.zippyshare.com/v/96945652/file.html
http://www9.zippyshare.com/v/95722072/file.html
Robocop [WebRip][VOSE][2014]
20 Puntos Score: 6.7/10
Visitas: 3877 Favoritos: 2
Ver los usuarios que votaron...
5 Comentarios Robocop [WebRip][VOSE][2014]
muy buen aporte graciass
Gracias descagando y viendo!
como esta el audio??
Cita aku_no_h: Mostrar
el audio e visto varios comentarios que no es muy bueno que se diga...
Basura, muy mala calidad y subtitulos chinos o coreanos pegados!!!!  
Para dejar un comentario Registrate! o.. eres ya usuario? Accede!