Robocop [WebRip][Latino][2014]




Este remake de 'RoboCop' se sitúa en la Detroit del año 2028, que está controlada por la multinacional robótica OmniCorp. Los drones que se fabrican allí se utilizan por el ejército, lo que reporta millones de dólares a la empresa. Ahora, OmniCorp tiene la ocasión de utilizar esta polémica tecnología para una buena causa: convertir en un robot a un hombre que quedó amputado y desfigurado después de un brutal asalto (Joel Kinnaman). Pero cuando OmniCorp decide sacar rédito de su invento, el héroe tomará su propio camino y perseguirá el objetivo de hacer justicia con sus propios métodos.



Título: RoboCop
Título original: RoboCop
Dirección: José Padilha
País: Estados Unidos
Año: 2014
Fecha de estreno: 14/02/2014
Duración: 118 min
Género: Acción, Ciencia ficción
Calificación: No recomendada para menores de 12 años
Reparto: Joel Kinnaman, Gary Oldman, Michael Keaton, Samuel L. Jackson, Jay Baruchel, Abbie Cornish, Jackie Earle Haley, Jennifer Ehle, Marianne Jean-Baptiste
Web: www.robocop.com/site/
Distribuidora: Sony Pictures
Productora: Metro-Goldwyn-Mayer (MGM), Columbia Pictures, Strike Entertainment

General
Format                                   : Matroska
Format version                           : Version 4 / Version 2
File size                                : 842 MiB
Duration                                 : 1h 48mn
Overall bit rate mode                    : Variable
Overall bit rate                         : 1 087 Kbps
Encoded date                             : UTC 2014-04-01 08:57:38
Writing application                      : mkvmerge v6.8.0 ('Theme for Great Cities') 64bit built on Mar  2 2014 21:34:26
Writing library                          : libebml v1.3.0 + libmatroska v1.4.1

Video
ID                                       : 1
Format                                   : MPEG-4 Visual
Format profile                           : Advanced [email protected]
Format settings, BVOP                    : Yes
Format settings, QPel                    : No
Format settings, GMC                     : No warppoints
Format settings, Matrix                  : Default (H.263)
Codec ID                                 : XVID
Codec ID/Hint                            : XviD
Duration                                 : 1h 48mn
Bit rate                                 : 874 Kbps
Width                                    : 640 pixels
Height                                   : 272 pixels
Display aspect ratio                     : 2.35:1
Frame rate                               : 29.970 fps
Color space                              : YUV
Chroma subsampling                       : 4:2:0
Bit depth                                : 8 bits
Scan type                                : Progressive
Compression mode                         : Lossy
Bits/(Pixel*Frame)                       : 0.167
Stream size                              : 677 MiB (80%)
Writing library                          : XviD 1.2.1 (UTC 2008-12-04)
Default                                  : Yes
Forced                                   : No

Audio
ID                                       : 2
Format                                   : MPEG Audio
Format version                           : Version 1
Format profile                           : Layer 3
Mode                                     : Joint stereo
Mode extension                           : MS Stereo
Codec ID                                 : A_MPEG/L3
Codec ID/Hint                            : MP3
Duration                                 : 1h 48mn
Bit rate mode                            : Variable
Bit rate                                 : 192 Kbps
Channel(s)                               : 2 channels
Sampling rate                            : 48.0 KHz
Compression mode                         : Lossy
Stream size                              : 149 MiB (18%)
Title                                    : LATINO MIC
Language                                 : Spanish
Default                                  : Yes
Forced                                   : No






http://www48.zippyshare.com/v/32238289/file.html
http://www63.zippyshare.com/v/84785902/file.html
http://www4.zippyshare.com/v/37588770/file.html
http://www23.zippyshare.com/v/35584659/file.html
http://www27.zippyshare.com/v/50412397/file.html
Robocop [WebRip][Latino][2014]
15 Puntos Score: 7.5/10
Visitas: 5937 Favoritos: 3
Ver los usuarios que votaron...
9 Comentarios Robocop [WebRip][Latino][2014]
Audio cam o final??
@jeovanny12 Ahi dice que es MIC
Y EN MEGA ..NUNCA NO?
@Eutopiac Jajajaja si eso es verdad
gracias......
@inffostec  Amigo no es nada de eso esta con los sub chinos y se oye como si estuviesen hablando desde una caja un desastre  
horrible la calidad... paso mas de un mes y todavia nadie la sube en buena calidad... una verguenza esto
Para dejar un comentario Registrate! o.. eres ya usuario? Accede!