Rio 2 [CAM][Latino][2014]




Blu, Perla y sus pequeños, unos traviesos guacamayos, disfrutan de una vida cómoda y entretenida en Río de Janeiro, Brasil. Sin embargo, Perla cada vez tiene más claro que sus niños, pequeños pájaros salvajes, serían más felices en el Amazonas.
Aunque una vez en la selva, su nueva vida no será tan fácil como pensaban. Sus vecinos no son los ideales, Perla se reencuentra con su padre al que hace tiempo que no veía, y los pequeños Carla, Tiago y Bia deciden no volver a la gran ciudad. Por si esto fuera poco, la cacatúa Nigel vuela hacia ellos con sed de venganza.



Título: Rio 2
Título original: Rio 2
Dirección: Carlos Saldanha
País: Estados Unidos
Año: 2014
Fecha de estreno: 04/04/2014
Duración: 101 min
Género: Comedia, Animación, Aventuras
Calificación: Apta para todos los públicos
Reparto: Anne Hathaway, Leslie Mann, Jamie Foxx, Jesse Eisenberg, Jemaine Clement, Rodrigo Santoro, Jake T. Austin, Amandla Stenberg, John Leguizamo, Andy García
Web: Rio 2 | Official Movie Site | View Trailers | Games | In Theaters April 11
Distribuidora: 20th Century Fox
Productora: Twentieth Century Fox Animation, Blue Sky Studios

General
Format                                   : AVI
Format/Info                              : Audio Video Interleave
File size                                : 909 MiB
Duration                                 : 1h 32mn
Overall bit rate                         : 1 381 Kbps
Writing application                      : Lavf52.84.0

Video
ID                                       : 0
Format                                   : MPEG-4 Visual
Format profile                           : [email protected]
Format settings, BVOP                    : No
Format settings, QPel                    : No
Format settings, GMC                     : No warppoints
Format settings, Matrix                  : Default (H.263)
Codec ID                                 : XVID
Codec ID/Hint                            : XviD
Duration                                 : 1h 32mn
Bit rate                                 : 1 239 Kbps
Width                                    : 720 pixels
Height                                   : 328 pixels
Display aspect ratio                     : 2.2:1
Frame rate                               : 29.970 fps
Color space                              : YUV
Chroma subsampling                       : 4:2:0
Bit depth                                : 8 bits
Scan type                                : Progressive
Compression mode                         : Lossy
Bits/(Pixel*Frame)                       : 0.175
Stream size                              : 816 MiB (90%)
Writing library                          : Lavc52.97.0

Audio
ID                                       : 1
Format                                   : MPEG Audio
Format version                           : Version 1
Format profile                           : Layer 3
Mode                                     : Joint stereo
Mode extension                           : MS Stereo
Codec ID                                 : 55
Codec ID/Hint                            : MP3
Duration                                 : 1h 32mn
Bit rate mode                            : Constant
Bit rate                                 : 128 Kbps
Channel(s)                               : 2 channels
Sampling rate                            : 48.0 KHz
Compression mode                         : Lossy
Stream size                              : 84.2 MiB (9%)
Alignment                                : Aligned on interleaves
Interleave, duration                     : 24 ms (0.72 video frame)






http://www22.zippyshare.com/v/8017622/file.html
http://www72.zippyshare.com/v/73062292/file.html
http://www38.zippyshare.com/v/32719319/file.html
http://www65.zippyshare.com/v/41316631/file.html
http://www76.zippyshare.com/v/10168179/file.html
Rio 2 [CAM][Latino][2014]
0 Puntos Score: 0/10
Visitas: 3487 Favoritos: 2
1 Comentarios Rio 2 [CAM][Latino][2014]
bajando bro a ver que tal
Para dejar un comentario Registrate! o.. eres ya usuario? Accede!