Oops.. Este post tiene los enlaces eliminados!

Identi revisa las denuncias de los usuarios en busca de enlaces eliminados que no dejan descargar los archivos, este mensaje te informa que este post que estas viendo tiene los enlaces eliminados.

Usa el Buscador

Por favor, te recomendamos que uses el buscador para encontrar más alternativas.

Joe [HDRip 720p][VOSE][2013]

  • Categoría: Reciclaje
  • Publicado hace más de 2 años



Nicolas Cage realiza una especie de regreso a sus orígenes indies encarnando al ex convicto Joe Ransom, que se ha alejado del mundanal ruido para aplacar sus instintos violentos y vivir en paz y tranquilidad consigo mismo. Pero un día se encuentra con un chico que despierta en él un irreconocible deseo protector. 'Joe' se basa en la novela de Larry Brown y tiene un guión de Gary Hawkins.



Título: Joe
Título original: Joe
Dirección: David Gordon Green
País: Estados Unidos
Año: 2013
Fecha de estreno: -
Duración: 117 min
Género: Drama
Reparto: Nicolas Cage, Tye Sheridan, Ronnie Gene Blevins, Heather Kafka

General
Format                                   : MPEG-4
Format profile                           : Base Media / Version 2
Codec ID                                 : mp42
File size                                : 1.81 GiB
Duration                                 : 1h 57mn
Overall bit rate mode                    : Variable
Overall bit rate                         : 2 199 Kbps
Encoded date                             : UTC 2014-04-11 09:26:59
Tagged date                              : UTC 2014-04-11 09:59:26
Writing application                      : DVDFab

Video
ID                                       : 1
Format                                   : AVC
Format/Info                              : Advanced Video Codec
Format profile                           : [email protected]
Format settings, CABAC                   : Yes
Format settings, ReFrames                : 1 frame
Codec ID                                 : avc1
Codec ID/Info                            : Advanced Video Coding
Duration                                 : 1h 57mn
Bit rate mode                            : Variable
Bit rate                                 : 1 797 Kbps
Width                                    : 1 280 pixels
Height                                   : 540 pixels
Display aspect ratio                     : 2.40:1
Frame rate mode                          : Variable
Frame rate                               : 23.976 fps
Minimum frame rate                       : 23.974 fps
Maximum frame rate                       : 23.981 fps
Color space                              : YUV
Chroma subsampling                       : 4:2:0
Bit depth                                : 8 bits
Scan type                                : Progressive
Bits/(Pixel*Frame)                       : 0.108
Stream size                              : 1.48 GiB (82%)
Writing library                          : x264 core
Encoded date                             : UTC 2014-04-11 09:26:59
Tagged date                              : UTC 2014-04-11 09:59:22
Color primaries                          : BT.709-5, BT.1361, IEC 61966-2-4, SMPTE RP177
Transfer characteristics                 : BT.709-5, BT.1361
Matrix coefficients                      : BT.709-5, BT.1361, IEC 61966-2-4 709, SMPTE RP177

Audio
ID                                       : 2
Format                                   : AAC
Format/Info                              : Advanced Audio Codec
Format profile                           : LC
Codec ID                                 : 40
Duration                                 : 1h 57mn
Bit rate mode                            : Variable
Bit rate                                 : 397 Kbps
Maximum bit rate                         : 549 Kbps
Channel(s)                               : 6 channels
Channel positions                        : Front: L C R, Side: L R, LFE
Sampling rate                            : 48.0 KHz
Compression mode                         : Lossy
Stream size                              : 334 MiB (18%)
Language                                 : English
Encoded date                             : UTC 2014-04-11 09:26:59
Tagged date                              : UTC 2014-04-11 09:59:07






http://www3.zippyshare.com/v/14960678/file.html
http://www74.zippyshare.com/v/43580179/file.html
http://www9.zippyshare.com/v/79262437/file.html
http://www73.zippyshare.com/v/69978735/file.html
http://www2.zippyshare.com/v/21258749/file.html
http://www3.zippyshare.com/v/20961012/file.html
http://www33.zippyshare.com/v/19639851/file.html
http://www34.zippyshare.com/v/23839519/file.html
http://www17.zippyshare.com/v/66392771/file.html
http://www49.zippyshare.com/v/8460396/file.html
Joe [HDRip 720p][VOSE][2013]
0 Puntos Score: 0/10
Visitas: 1250 Favoritos: 1
2 Comentarios Joe [HDRip 720p][VOSE][2013]
Los subtitulos vienen pegados al video?
Cita edward85: Mostrar
eso es correcto
Para dejar un comentario Registrate! o.. eres ya usuario? Accede!