Children Of Sorrow [HDRip 720p][VOSE][2013]




Simon Leach, un hombre enfermo y angustiado, ha creado una secta a la que acuden jóvenes desamparados en busca de afecto. Pero cuando una joven se alista en esta secta buscando respuestas a la desaparición de sus hermanas, descubre un oscuro secreto oculto en la secta? y un secreto aun más siniestro dentro de ella misma.



Título original: Children of Sorrow
Año: 2013
Duración: 88 min.
País: Estados Unidos
Director: Jourdan McClure
Reparto: Bill Oberst Jr, Hannah Levien, Whitney Nielsen, John Mawson, Napoleon Ryan
Productora: Lionsgate
Género: Terror | Cine independiente USA. Sectas. Metraje encontrado

General
Format                                   : MPEG-4
Format profile                           : Base Media / Version 2
Codec ID                                 : mp42
File size                                : 911 MiB
Duration                                 : 1h 28mn
Overall bit rate mode                    : Variable
Overall bit rate                         : 1 442 Kbps
Writing application                      : DVDFab

Video
ID                                       : 1
Format                                   : AVC
Format/Info                              : Advanced Video Codec
Format profile                           : [email protected]
Format settings, CABAC                   : Yes
Format settings, ReFrames                : 1 frame
Codec ID                                 : avc1
Codec ID/Info                            : Advanced Video Coding
Duration                                 : 1h 28mn
Bit rate mode                            : Variable
Bit rate                                 : 1 109 Kbps
Width                                    : 1 280 pixels
Height                                   : 714 pixels
Display aspect ratio                     : 16:9
Frame rate mode                          : Variable
Frame rate                               : 23.976 fps
Minimum frame rate                       : 23.974 fps
Maximum frame rate                       : 23.981 fps
Color space                              : YUV
Chroma subsampling                       : 4:2:0
Bit depth                                : 8 bits
Scan type                                : Progressive
Bits/(Pixel*Frame)                       : 0.051
Stream size                              : 701 MiB (77%)
Writing library                          : x264 core
Encoded date                             : UTC 2014-04-11 02:40:14
Tagged date                              : UTC 2014-04-11 03:03:53
Color primaries                          : BT.709-5, BT.1361, IEC 61966-2-4, SMPTE RP177
Transfer characteristics                 : BT.709-5, BT.1361
Matrix coefficients                      : BT.709-5, BT.1361, IEC 61966-2-4 709, SMPTE RP177

Audio
ID                                       : 2
Format                                   : AAC
Format/Info                              : Advanced Audio Codec
Format profile                           : LC
Codec ID                                 : 40
Duration                                 : 1h 28mn
Bit rate mode                            : Variable
Bit rate                                 : 328 Kbps
Maximum bit rate                         : 530 Kbps
Channel(s)                               : 6 channels
Channel positions                        : Front: L C R, Side: L R, LFE
Sampling rate                            : 48.0 KHz
Compression mode                         : Lossy
Stream size                              : 207 MiB (23%)
Language                                 : English
Encoded date                             : UTC 2014-04-11 02:40:14
Tagged date                              : UTC 2014-04-11 03:03:41






http://www74.zippyshare.com/v/47609988/file.html
http://www67.zippyshare.com/v/64417195/file.html
http://www74.zippyshare.com/v/86399196/file.html
http://www10.zippyshare.com/v/16908618/file.html
http://www47.zippyshare.com/v/62287700/file.html
Children Of Sorrow [HDRip 720p][VOSE][2013]
0 Puntos Score: 0/10
Visitas: 1739 Favoritos: 1
1 Comentarios Children Of Sorrow [HDRip 720p][VOSE][2013]
la peor pelicula que vi en mucho tiempo, pero gracias por la subida  
Para dejar un comentario Registrate! o.. eres ya usuario? Accede!