Children Of Sorrow [HDRip 720p][Latino][2013]




Simon Leach, un hombre enfermo y angustiado, ha creado una secta a la que acuden jóvenes desamparados en busca de afecto. Pero cuando una joven se alista en esta secta buscando respuestas a la desaparición de sus hermanas, descubre un oscuro secreto oculto en la secta? y un secreto aun más siniestro dentro de ella misma.



Título original: Children of Sorrow
Año: 2013
Duración: 88 min.
País: Estados Unidos
Director: Jourdan McClure
Reparto: Bill Oberst Jr, Hannah Levien, Whitney Nielsen, John Mawson, Napoleon Ryan
Productora: Lionsgate
Género: Terror | Cine independiente USA. Sectas. Metraje encontrado

General
Format                                   : MPEG-4
Format profile                           : Base Media / Version 2
Codec ID                                 : mp42
File size                                : 976 MiB
Duration                                 : 1h 28mn
Overall bit rate mode                    : Variable
Overall bit rate                         : 1 544 Kbps
Writing application                      : DVDFab

Video
ID                                       : 1
Format                                   : AVC
Format/Info                              : Advanced Video Codec
Format profile                           : [email protected]
Format settings, CABAC                   : Yes
Format settings, ReFrames                : 1 frame
Codec ID                                 : avc1
Codec ID/Info                            : Advanced Video Coding
Duration                                 : 1h 28mn
Bit rate mode                            : Variable
Bit rate                                 : 1 411 Kbps
Width                                    : 1 280 pixels
Height                                   : 714 pixels
Display aspect ratio                     : 16:9
Frame rate mode                          : Variable
Frame rate                               : 23.976 fps
Minimum frame rate                       : 23.974 fps
Maximum frame rate                       : 23.981 fps
Color space                              : YUV
Chroma subsampling                       : 4:2:0
Bit depth                                : 8 bits
Scan type                                : Progressive
Bits/(Pixel*Frame)                       : 0.064
Stream size                              : 892 MiB (91%)
Writing library                          : x264 core
Encoded date                             : UTC 2014-04-11 02:11:54
Tagged date                              : UTC 2014-04-11 02:33:06
Color primaries                          : BT.709-5, BT.1361, IEC 61966-2-4, SMPTE RP177
Transfer characteristics                 : BT.709-5, BT.1361
Matrix coefficients                      : BT.709-5, BT.1361, IEC 61966-2-4 709, SMPTE RP177

Audio
ID                                       : 2
Format                                   : AAC
Format/Info                              : Advanced Audio Codec
Format profile                           : LC
Codec ID                                 : 40
Duration                                 : 1h 28mn
Bit rate mode                            : Variable
Bit rate                                 : 128 Kbps
Maximum bit rate                         : 201 Kbps
Channel(s)                               : 2 channels
Channel positions                        : Front: L R
Sampling rate                            : 48.0 KHz
Compression mode                         : Lossy
Stream size                              : 80.8 MiB (8%)
Language                                 : Spanish
Encoded date                             : UTC 2014-04-11 02:11:54
Tagged date                              : UTC 2014-04-11 02:32:06






http://www73.zippyshare.com/v/81929073/file.html
http://www72.zippyshare.com/v/23644602/file.html
http://www57.zippyshare.com/v/22697875/file.html
http://www17.zippyshare.com/v/28054875/file.html
http://www48.zippyshare.com/v/10935762/file.html
Children Of Sorrow [HDRip 720p][Latino][2013]
10 Puntos Score: 10/10
Visitas: 2057 Favoritos: 1
Ver los usuarios que votaron...
2 Comentarios Children Of Sorrow [HDRip 720p][Latino][2013]
gracias por compartir
se agradece ojala este buena esta pelicula
Para dejar un comentario Registrate! o.. eres ya usuario? Accede!