Vampire Academy [CAM][VOSE][2014]




Rose Hathaway (Zoey Deutch) es una criatura que es mitad vampiro, mitad humana. Sigue un entrenamiento en la Academia de San Vladímir con el objetivo de convertirse en guardiana. En su mundo hay vampiros buenos y malos: Moroi, por ejemplo, cohabita pacíficamente junto a los humanos y posee el control de los elementos de agua, tierra, aire y fuego. En cambio, Strigoi es un adicto a la sangre que sólo piensa en matar a gente inocente. Tras verse envuelta en la muerte de Strigoi, Rose tendrá que proteger a la princesa Dragomir (Lucy Fry) y escapar a toda velocidad de la Academia.



Título: Vampire Academy
Título original: Vampire Academy
Dirección: Mark Waters
País: El Reino Unido, Estados Unidos
Año: 2014
Fecha de estreno: 09/05/2014
Duración: 104 min
Género: Comedia, Acción, Fantástico
Calificación: No recomendada para menores de 13 años
Reparto: Sarah Hyland, Olga Kurylenko, Joely Richardson, Claire Foy, Cameron Monaghan, Gabriel Byrne, Lucy Fry, Sami Gayle
Web: www.va-movie.com
Distribuidora: eOne Films
Productora: Kintop Pictures, Angry Films, Preger Entertainment

General
Format                                   : AVI
Format/Info                              : Audio Video Interleave
File size                                : 1 007 MiB
Duration                                 : 1h 35mn
Overall bit rate                         : 1 481 Kbps
Writing application                      : Lavf52.84.0

Video
ID                                       : 0
Format                                   : MPEG-4 Visual
Codec ID                                 : FMP4
Duration                                 : 1h 35mn
Bit rate                                 : 1 339 Kbps
Width                                    : 864 pixels
Height                                   : 360 pixels
Display aspect ratio                     : 2.40:1
Frame rate                               : 29.970 fps
Color space                              : YUV
Chroma subsampling                       : 4:2:0
Compression mode                         : Lossy
Bits/(Pixel*Frame)                       : 0.144
Stream size                              : 910 MiB (90%)

Audio
ID                                       : 1
Format                                   : MPEG Audio
Format version                           : Version 1
Format profile                           : Layer 3
Mode                                     : Joint stereo
Mode extension                           : MS Stereo
Codec ID                                 : 55
Codec ID/Hint                            : MP3
Duration                                 : 1h 35mn
Bit rate mode                            : Constant
Bit rate                                 : 128 Kbps
Channel(s)                               : 2 channels
Sampling rate                            : 48.0 KHz
Compression mode                         : Lossy
Stream size                              : 87.0 MiB (9%)
Alignment                                : Aligned on interleaves
Interleave, duration                     : 24 ms (0.72 video frame)
Writing library                          : LAME3.98.4






http://www22.zippyshare.com/v/82347098/file.html
http://www75.zippyshare.com/v/94471793/file.html
http://www28.zippyshare.com/v/97240002/file.html
http://www52.zippyshare.com/v/44979229/file.html
http://www76.zippyshare.com/v/32070552/file.html
http://www42.zippyshare.com/v/1647598/file.html
Vampire Academy [CAM][VOSE][2014]
10 Puntos Score: 10/10
Visitas: 929 Favoritos: 1
Ver los usuarios que votaron...
0 Comentarios Vampire Academy [CAM][VOSE][2014]
Este post no tiene comentarios. Sea el primero!
Para dejar un comentario Registrate! o.. eres ya usuario? Accede!