Believe - Temporada 1 Ep-6 [1x06] HD 720p Sub [MG]




Bienvenidos a mi post.






Believe es una serie de televisión estadounidense de ciencia ficción, creada por Alfonso Cuarón y Mark Friedman. La serie sigue a Bo  una niña de diez años que posee habilidades que no puede controlar  y a Tate, un ex convicto quien tiene la misión de mantener a Bo a salvo de fuerzas oscuras que desean su poder


  General
      Complete name :Believe 1x06 HD 720p .avi
      Format : AVI
      Format/Info : Audio Video Interleave
      File size : 442 MiB
      Duration : 42mn 3s
      Overall bit rate : 1 470 Kbps
      Writing application : Lavf52.94.0
   Video #0
      ID : 0
      Format : AVC
      Format/Info : Advanced Video Codec
      Format profile : [email protected]
      Format settings, CABAC : Yes
      Format settings, ReFrames : 2 frames
      Codec ID : H264
      Duration : 42mn 2s
      Bit rate : 1 202 Kbps
      Nominal bit rate : 1 209 Kbps
      Width : 1 280 pixels
      Height : 720 pixels
      Display aspect ratio : 16:9
      Frame rate mode : Variable
      Frame rate : 24.000 fps
      Resolution : 24 bits
      Colorimetry : 4:2:0
      Scan type : Progressive
      Bits/(Pixel*Frame) : 0.054
      Stream size : 361 MiB (82%)
      Writing library : x264 core 112 r1834 a51816a
      Encoding settings : cabac=1
   Audio #1
      ID : 1
      Format : MPEG Audio
      Format version : Version 1
      Format profile : Layer 3
      Codec ID : 55
      Codec ID/Hint : MP3
      Duration : 42mn 3s
      Bit rate mode : Constant
      Bit rate : 256 Kbps
      Channel(s) : 2 channels
      Sampling rate : 48.0 KHz
      Resolution : 16 bits
      Stream size : 77.0 MiB (17%)
      Alignment : Aligned on interleaves
      Interleave, duration : 24 ms (0.58 video frame)
      Writing library : LAME3.98.4
      Subtitulos incrustados

Enlaces De Descarga




Sin pass
Believe - Temporada 1 Ep-6 [1x06] HD 720p Sub [MG]
10 Puntos Score: 10/10
Visitas: 661 Favoritos: 0
Ver los usuarios que votaron...
7 Comentarios Believe - Temporada 1 Ep-6 [1x06] HD 720p Sub [MG]
Cita Kahmra: Mostrar
Gracias amigo!!
gracias espero los q siguen me aviasas?
Cita alexsyke: Mostrar
OK BRO
Cita alexsyke: Mostrar
http://www.identi.li/index.php?topic=310923

episodio 7, que la disfrutes  
Este post esta cerrado y no se permiten comentarios.
Para dejar un comentario Registrate! o.. eres ya usuario? Accede!