Believe - Temporada 1 Ep-5 [1x05] HD 720p Sub [MG]




Bienvenidos a mi post.






Believe es una serie de televisión estadounidense de ciencia ficción, creada por Alfonso Cuarón y Mark Friedman. La serie sigue a Bo  una niña de diez años que posee habilidades que no puede controlar  y a Tate, un ex convicto quien tiene la misión de mantener a Bo a salvo de fuerzas oscuras que desean su poder


  General
      Complete name : Believe 1x05 HD 720p .avi
      Format : AVI
      Format/Info : Audio Video Interleave
      File size : 526 MiB
      Duration : 42mn 32s
      Overall bit rate : 1 729 Kbps
      Writing library : VirtualDub build 32842/release
   Video #0
      ID : 0
      Format : MPEG-4 Visual
      Format profile : [email protected]
      Format settings, BVOP : Yes
      Format settings, QPel : No
      Format settings, GMC : No warppoints
      Format settings, Matrix : Default (H.263)
      Muxing mode : Packed bitstream
      Codec ID : XVID
      Codec ID/Hint : XviD
      Duration : 42mn 32s
      Bit rate : 1 400 Kbps
      Width : 1 280 pixels
      Height : 720 pixels
      Display aspect ratio : 16:9
      Frame rate : 23.976 fps
      Resolution : 24 bits
      Colorimetry : 4:2:0
      Scan type : Progressive
      Bits/(Pixel*Frame) : 0.063
      Stream size : 426 MiB (81%)
      Writing library : XviD 64
   Audio #1
      ID : 1
      Format : MPEG Audio
      Format version : Version 1
      Format profile : Layer 3
      Codec ID : 55
      Codec ID/Hint : MP3
      Duration : 42mn 32s
      Bit rate mode : Constant
      Bit rate : 320 Kbps
      Channel(s) : 2 channels
      Sampling rate : 48.0 KHz
      Resolution : 16 bits
      Stream size : 97.4 MiB (19%)
      Alignment : Split accross interleaves
      Interleave, duration : 42 ms (1.00 video frame)
      Interleave, preload duration : 500 ms
      Subtitulos incrustados

Enlaces De Descarga




Sin pass
Believe - Temporada 1 Ep-5 [1x05] HD 720p Sub [MG]
0 Puntos Score: 0/10
Visitas: 508 Favoritos: 0
0 Comentarios Believe - Temporada 1 Ep-5 [1x05] HD 720p Sub [MG]
Este post esta cerrado y no se permiten comentarios.
Para dejar un comentario Registrate! o.. eres ya usuario? Accede!