Believe - Temporada 1 Ep-2 [1x02] HD 720p [MG]




Bienvenidos a mi post.






Believe es una serie de televisión estadounidense de ciencia ficción, creada por Alfonso Cuarón y Mark Friedman. La serie sigue a Bo  una niña de diez años que posee habilidades que no puede controlar  y a Tate, un ex convicto quien tiene la misión de mantener a Bo a salvo de fuerzas oscuras que desean su poder


 General
      Complete name : Believe 1x02 HD 720p esp.mkv
      Format : Matroska
      File size : 614 MiB
      Duration : 43mn 6s
      Overall bit rate : 1 993 Kbps
      Movie name : Believe.1x02.720p
      Encoded date : UTC 2014-04-01 22:41:19
      Writing application : mkvmerge v6.7.0 ('Back to the Ground') 32bit built on Jan  8 2014 15:03:17
      Writing library : libebml v1.3.0 + libmatroska v1.4.1
   Video #1
      ID : 1
      Format : AVC
      Format/Info : Advanced Video Codec
      Format profile : [email protected]
      Format settings, CABAC : Yes
      Format settings, ReFrames : 4 frames
      Muxing mode : Container [email protected]
      Codec ID : V_MPEG4/ISO/AVC
      Duration : 43mn 4s
      Bit rate : 1 761 Kbps
      Nominal bit rate : 1 800 Kbps
      Width : 1 280 pixels
      Height : 720 pixels
      Display aspect ratio : 16:9
      Frame rate : 23.976 fps
      Resolution : 24 bits
      Colorimetry : 4:2:0
      Scan type : Progressive
      Bits/(Pixel*Frame) : 0.080
      Stream size : 542 MiB (88%)
      Title : Believe.1x02.720p
      Writing library : x264 core 138 r2358 9e941d1
   Audio #2
      ID : 2
      Format : AC-3
      Format/Info : Audio Coding 3
      Codec ID : A_AC3
      Duration : 43mn 6s
      Bit rate mode : Constant
      Bit rate : 192 Kbps
      Channel(s) : 2 channels
      Channel positions : L R
      Sampling rate : 48.0 KHz
      Stream size : 59.2 MiB (10%)
      Title : Believe.1x02.720p
      Language : Spanish












Enlaces De Descarga




Sin pass
Believe - Temporada 1 Ep-2 [1x02] HD 720p [MG]
10 Puntos Score: 10/10
Visitas: 672 Favoritos: 0
Ver los usuarios que votaron...
4 Comentarios Believe - Temporada 1 Ep-2 [1x02] HD 720p [MG]
Gracias por compartir, se ven geniales y esta super entretenida
No esta en castellano
cr
Cita Valykan: Mostrar
creo que se nota un poquito el espa?
Este post esta cerrado y no se permiten comentarios.
Para dejar un comentario Registrate! o.. eres ya usuario? Accede!