Que te calles tais toi jean reno audiolatino mega





Saludos aqui les dejo esta excelente pelicula,el audio latino fue grabado de netflix al audio se le va el sonido 12 segundos del minuto 32.04 al  32.15, pense que se habia grabado mal pero fui de nuevo a netflix y tiene el mismo error, les incluyo un subtitulo con tres frases que se perdieron
En la carcel por enesima ocasion, el torpe ladron de bancos quentin un ratero buenazo fortachon e infinitamente tonto cuya incontenible charla es capaz de irritar al mas manso y alterar al mas imperturable es colocado en la misma celda que ruby un peligroso criminal que se ha negado a hablar, acusado de un robo millonario


Capturas


General
Complete name                  : D:iQUE TE CALLES! iTAIS TOI!-2000.avi
Format                         : AVI
Format/Info                    : Audio Video Interleave
File size                      : 1.38 GiB
Duration                       : 1h 27mn
Overall bit rate               : 2 267 Kbps
Writing application            : VirtualDubMod 1.5.10.3 | || (build 2550/release)
Writing library                : VirtualDubMod build 2550/release

Video
ID                             : 0
Format                         : MPEG-4 Visual
Format profile                 : Advanced [email protected]
Format settings, BVOP          : Yes
Format settings, QPel          : No
Format settings, GMC           : No warppoints
Format settings, Matrix        : Custom
Codec ID                       : XVID
Codec ID/Hint                  : XviD
Duration                       : 1h 27mn
Bit rate                       : 2 002 Kbps
Width                          : 720 pixels
Height                         : 544 pixels
Display aspect ratio           : 4:3
Frame rate                     : 23.976 fps
Color space                    : YUV
Chroma subsampling             : 4:2:0
Bit depth                      : 8 bits
Scan type                      : Progressive
Compression mode               : Lossy
Bits/(Pixel*Frame)             : 0.213
Stream size                    : 1.22 GiB (88%)
Writing library                : XviD 64

Audio
ID                             : 1
Format                         : AC-3
Format/Info                    : Audio Coding 3
Mode extension                 : CM (complete main)
Format settings, Endianness    : Big
Codec ID                       : 2000
Duration                       : 1h 27mn
Bit rate mode                  : Constant
Bit rate                       : 256 Kbps
Channel(s)                     : 2 channels
Channel positions              : Front: L R
Sampling rate                  : 48.0 KHz
Bit depth                      : 16 bits
Compression mode               : Lossy
Delay relative to video        : 16ms
Stream size                    : 159 MiB (11%)
Alignment                      : Split accross interleaves
Interleave, duration           : 42 ms (1.00 video frame)
Interleave, preload duration   : 500 ms





Solo la carpeta

Que te calles tais toi jean reno audiolatino mega
20 Puntos Score: 10/10
Visitas: 2472 Favoritos: 1
Ver los usuarios que votaron...
9 Comentarios Que te calles tais toi jean reno audiolatino mega
Excelente aporte... tengo varias pel?
Nunca la vi ni la conocia. Parece buena. Pero lo que mas me sorprende, el trabajo que hiciste para conseguirla. Gracias por el aporte!
Gracias juanchito  
@juanw200  hola ,antes que nada perdoname si ya te pregunte esto ,es que se lo pregunto a todos y ya no se a quien ya se lo pregunte,jajaj , la pregunta es si de casualidad tendrias la serie fringe en audio latino,la serie the wire en latino,la cuarta temporada de Boardwalk Empire en latino.Peaky Blinders en latino ,Six Feet Under/A dos metros bajo tierra en latino.Carniv?
@maxik14 no amigo ninguna, hace mucho vi en el blockbusters las temporadas de Six Feet Under de la temporada 2 a la 5 estaban con latino y la temporada 1 en ingles y portugues pero fui a buscarlas hace poco pero ya no las encontre
hola amigo "juanw200" disculpa pero necesito pedirte un tremendo favor, estaba buscando uno de tus pots del "duende maldito 3" y queria descargarmelo, pero los liink estan caidos y creo k tu eres la unica persona k lo tiene en audio latino porfavor podrias volver a subirlo me harias un gran favor amigo te lo imploro porfavor arregla los link del "duende maldito 3" http://www.identi.li/index.php?topic=241517. porfavor JUANW200
Cita delmexito: Mostrar
Si los estas buscando con tanta vehemencia es porque por debe a ver en la red , me dio ganas de verla.
BRO me costoto mucho descargar las partes pero la parte 11 no me deja descarga   podrias reparar el link por favor  
Para dejar un comentario Registrate! o.. eres ya usuario? Accede!