Believe serie de estreno 1x01 HD 720p mkv

Believe  serie de estreno 1x01 HD 720p
 



Bienvenidos a mi post amigos.










Believe

Género: Drama, Fantasy

Protagonistas: Jake McLaughlin, Arian Moayed, Jamie Chung, Delroy Lindo

Duracion: 43mn 7s
  
Año: 2014

Video: mkv

Sinopsis
Trata sobre la relación entre Bo, una chica que posee unos poderes excepcionales, y Tate, un convicto al que sacan de prisión para protegerla de quienes quieren dar caza a la joven.Sinopsis
Trata sobre la relación entre Bo, una chica que posee unos poderes excepcionales, y Tate, un convicto al que sacan de prisión para protegerla de quienes quieren dar caza a la joven.


General
      Complete name : creer.1x01.720.mkv
      Format : Matroska
      File size : 615 MiB
      Duration : 43mn 7s
      Overall bit rate : 1 993 Kbps
      Movie name : Believe.1x01.Piloto.m720p.WEB.DL.tenshou
      Encoded date : UTC 2014-03-25 22:20:51
      Writing application : mkvmerge v6.7.0 ('Back to the Ground') 32bit built on Jan  8 2014 15:03:17
      Writing library : libebml v1.3.0 + libmatroska v1.4.1
   Video #1
      ID : 1
      Format : AVC
      Format/Info : Advanced Video Codec
      Format profile : [email protected]
      Format settings, CABAC : Yes
      Format settings, ReFrames : 4 frames
      Muxing mode : Container [email protected]
      Codec ID : V_MPEG4/ISO/AVC
      Duration : 43mn 5s
      Bit rate : 1 761 Kbps
      Nominal bit rate : 1 800 Kbps
      Width : 1 280 pixels
      Height : 720 pixels
      Display aspect ratio : 16:9
      Frame rate : 23.976 fps
      Resolution : 24 bits
      Colorimetry : 4:2:0
      Scan type : Progressive
      Bits/(Pixel*Frame) : 0.080
      Stream size : 543 MiB (88%)
      Title : Believe.1x01.Piloto.m720p.WEB.DL.tenshou
      Writing library : x264 core 138 r2358 9e941d1
   Audio #2
      ID : 2
      Format : AC-3
      Format/Info : Audio Coding 3
      Codec ID : A_AC3
      Duration : 43mn 7s
      Bit rate mode : Constant
      Bit rate : 192 Kbps
      Channel(s) : 2 channels
      Channel positions : L R
      Sampling rate : 48.0 KHz
      Stream size : 59.2 MiB (10%)
      Title : Believe.1x01.Piloto.m720p.WEB.DL.tenshou
      Language : Spanish
   Text #3
      ID : 3
      Format : UTF-8
      Codec ID : S_TEXT/UTF8
      Codec ID/Info : UTF-8 Plain Text
      Title : Believe.1x01.Piloto.m720p.WEB.DL.tenshou
      Language : Spanish


sin pass

Enlaces De Descarga

Believe serie de estreno 1x01 HD 720p mkv
0 Puntos Score: 0/10
Visitas: 1500 Favoritos: 3
7 Comentarios Believe serie de estreno 1x01 HD 720p mkv
Tal ves puedas subir las que siguen en esta calidad.  
vamos a ver q tal
es muy buena esta serie...
Cita anibal23: Mostrar
Cita anibal23: Mostrar
Este post esta cerrado y no se permiten comentarios.
Para dejar un comentario Registrate! o.. eres ya usuario? Accede!