Sin Escalas [R5][Castellano][2014]




El oficial del ejército del aire Bill Marks (Liam Neeson) se encuentra a bordo de un vuelo transoceánico que va de Nueva York a Londres. En mitad del trayecto, Bill empieza a recibir unos mensajes de texto crípticos: le piden que obligue a la aerolínea a depositar 150 millones de dólares en una cuenta secreta. Si no, morirá un pasajero cada 20 minutos. El estrés hará mella en Bill, que siempre pensó que su trabajo se parecería más al de un gris oficinista que al de un héroe de acción bajo cuya responsabilidad se encuentran decenas de personas inocentes.




Título: Non-Stop
Título original: Non-Stop
Dirección: Jaume Collet-Serra
País: Estados Unidos
Año: 2014
Fecha de estreno: 21/03/2014
Duración: 106 min
Género: Thriller, Acción, Intriga
Reparto: Anson Mount, Julianne Moore, Liam Neeson, Michelle Dockery, Corey Stoll, Scoot McNairy, Linus Roache, Jon Abrahams, Lupita Nyong'o
Web: Non-Stop Movie Official Site - Trailers, Cast & Photos | Universal Pictures
Distribuidora: TriPictures
Productora: Universal Pictures, Silver Pictures, StudioCanal

General
Format                                   : MPEG-4
Format profile                           : Base Media
Codec ID                                 : isom
File size                                : 634 MiB
Duration                                 : 1h 45mn
Overall bit rate mode                    : Variable
Overall bit rate                         : 837 Kbps
Writing application                      : Lavf54.63.104

Video
ID                                       : 1
Format                                   : AVC
Format/Info                              : Advanced Video Codec
Format profile                           : [email protected]
Format settings, CABAC                   : Yes
Format settings, ReFrames                : 4 frames
Codec ID                                 : avc1
Codec ID/Info                            : Advanced Video Coding
Duration                                 : 1h 45mn
Bit rate                                 : 750 Kbps
Width                                    : 720 pixels
Height                                   : 304 pixels
Display aspect ratio                     : 2.35:1
Frame rate mode                          : Constant
Frame rate                               : 29.970 fps
Color space                              : YUV
Chroma subsampling                       : 4:2:0
Bit depth                                : 8 bits
Scan type                                : Progressive
Bits/(Pixel*Frame)                       : 0.114
Stream size                              : 566 MiB (89%)
Writing library                          : x264 core 120 r2151 a3f4407
Encoding settings                        : cabac=1 / ref=3 / deblock=1:0:0 / analyse=0x3:0x113 / me=hex / subme=7 / psy=1 / psy_rd=1.00:0.00 / mixed_ref=1 / me_range=16 / chroma_me=1 / trellis=1 / 8x8dct=1 / cqm=0 / deadzone=21,11 / fast_pskip=1 / chroma_qp_offset=-2 / threads=16 / sliced_threads=0 / nr=0 / decimate=1 / interlaced=0 / bluray_compat=0 / constrained_intra=0 / bframes=3 / b_pyramid=2 / b_adapt=1 / b_bias=0 / direct=1 / weightb=1 / open_gop=0 / weightp=2 / keyint=25 / keyint_min=2 / scenecut=40 / intra_refresh=0 / rc_lookahead=25 / rc=abr / mbtree=1 / bitrate=750 / ratetol=1.0 / qcomp=0.60 / qpmin=0 / qpmax=69 / qpstep=4 / ip_ratio=1.40 / aq=1:1.00

Audio
ID                                       : 2
Format                                   : AAC
Format/Info                              : Advanced Audio Codec
Format profile                           : LC
Codec ID                                 : 40
Duration                                 : 1h 45mn
Bit rate mode                            : Variable
Bit rate                                 : 82.7 Kbps
Maximum bit rate                         : 128 Kbps
Channel(s)                               : 2 channels
Channel positions                        : Front: L R
Sampling rate                            : 24.0 KHz
Compression mode                         : Lossy
Stream size                              : 62.6 MiB (10%)






http://www53.zippyshare.com/v/82302101/file.html
http://www66.zippyshare.com/v/64924468/file.html
http://www6.zippyshare.com/v/23960087/file.html
http://www46.zippyshare.com/v/77736943/file.html
Sin Escalas [R5][Castellano][2014]
15 Puntos Score: 7.5/10
Visitas: 1969 Favoritos: 0
Ver los usuarios que votaron...
2 Comentarios Sin Escalas [R5][Castellano][2014]
parece un dvdrip el audio se entiende aunque a veces hay un poco de eco te dejo mis 10 ma?
Para dejar un comentario Registrate! o.. eres ya usuario? Accede!