Repentance [CAM][VOSE][2014]




La película sigue a Thomas Carter (Mackie), un experimentado orientador que es misteriosamente secuestrado por un paciente trastornado, Angel Sánchez (Whitaker), quien profundiza en las enseñanzas de Thomas y utiliza sus mensajes espirituales de Karma ? acción y reacción en contra de él y su familia para aterrorizarle con sus pecados del pasado. 



Título Original: Repentance
Año : 2014
País : Estados Unidos.
Duración: 1H con 19 min. aprox.
Director : Philippe Caland
Música : Mark Kilian 
Género: Terror. Thriller
Productora : Tommy 2.0 LLC / Forest Whitaker?s Significant Productions
Reparto : Forest Whitaker, Anthony Mackie, Mike Epps, Sanaa Lathan

General
Format                                   : AVI
Format/Info                              : Audio Video Interleave
File size                                : 1 000 MiB
Duration                                 : 1h 19mn
Overall bit rate                         : 1 766 Kbps
Movie name                               : Repentance.Title1.DVDRip
Writing application                      : Lavf52.78.4
Original source form/Name                : Repentance

Video
ID                                       : 0
Format                                   : MPEG-4 Visual
Format profile                           : Advanced [email protected]
Format settings, BVOP                    : 2
Format settings, QPel                    : No
Format settings, GMC                     : No warppoints
Format settings, Matrix                  : Default (H.263)
Muxing mode                              : Packed bitstream
Codec ID                                 : DX50
Codec ID/Hint                            : DivX 5
Duration                                 : 1h 19mn
Bit rate                                 : 1 530 Kbps
Width                                    : 720 pixels
Height                                   : 404 pixels
Display aspect ratio                     : 16:9
Frame rate                               : 29.970 fps
Color space                              : YUV
Chroma subsampling                       : 4:2:0
Bit depth                                : 8 bits
Scan type                                : Progressive
Compression mode                         : Lossy
Bits/(Pixel*Frame)                       : 0.175
Stream size                              : 867 MiB (87%)
Writing library                          : XviD 1.2.1 (UTC 2008-12-04)

Audio
ID                                       : 1
Format                                   : AC-3
Format/Info                              : Audio Coding 3
Mode extension                           : CM (complete main)
Format settings, Endianness              : Big
Codec ID                                 : 2000
Duration                                 : 1h 19mn
Bit rate mode                            : Constant
Bit rate                                 : 224 Kbps
Channel(s)                               : 2 channels
Channel positions                        : Front: L R
Sampling rate                            : 48.0 KHz
Bit depth                                : 16 bits
Compression mode                         : Lossy
Stream size                              : 127 MiB (13%)
Alignment                                : Aligned on interleaves
Interleave, duration                     : 32 ms (0.96 video frame)
Interleave, preload duration             : 32 ms






http://www55.zippyshare.com/v/81991194/file.html
http://www7.zippyshare.com/v/8544598/file.html
http://www47.zippyshare.com/v/99974956/file.html
http://www43.zippyshare.com/v/22269363/file.html
http://www5.zippyshare.com/v/89414378/file.html
http://www49.zippyshare.com/v/37919224/file.html
Repentance [CAM][VOSE][2014]
0 Puntos Score: 0/10
Visitas: 1568 Favoritos: 0
1 Comentarios Repentance [CAM][VOSE][2014]
NO LA CONOCIA MUCHAS GRACIAS
Para dejar un comentario Registrate! o.. eres ya usuario? Accede!