Pompeya [TSHQ][VOSE][2014]




Un esclavo convertido en gladiador se encuentra a sí mismo en una carrera contra el tiempo para salvar a su verdadero amor, quien se ha prometido con un corrupto senador romano. Cuando el Monte Vesubio entre en erupción, deberá luchar para salvar a su amada mientras Pompeya se va derrumbando a su alrededor.



Título: Pompeya
Título original: Pompeii
Dirección: Paul W.S. Anderson
País: Estados Unidos, Alemania
Año: 2014
Fecha de estreno: 25/04/2014
Duración: -
Género: Drama, Aventuras, Acción
Reparto: Emily Browning, Kit Harington, Kiefer Sutherland, Jared Harris, Carrie-Anne Moss, Adewale Akinnuoye-Agbaje, Jessica Lucas
Distribuidora: eOne Films
Productora: Constantin Film Produktion, Don Carmody Productions

General
Format                                   : AVI
Format/Info                              : Audio Video Interleave
File size                                : 997 MiB
Duration                                 : 1h 40mn
Overall bit rate                         : 1 392 Kbps
Writing application                      : Lavf52.84.0

Video
ID                                       : 0
Format                                   : MPEG-4 Visual
Format profile                           : [email protected]
Format settings, BVOP                    : No
Format settings, QPel                    : No
Format settings, GMC                     : No warppoints
Format settings, Matrix                  : Default (H.263)
Codec ID                                 : XVID
Codec ID/Hint                            : XviD
Duration                                 : 1h 40mn
Bit rate                                 : 1 252 Kbps
Width                                    : 720 pixels
Height                                   : 304 pixels
Display aspect ratio                     : 2.35:1
Frame rate                               : 29.970 fps
Color space                              : YUV
Chroma subsampling                       : 4:2:0
Bit depth                                : 8 bits
Scan type                                : Progressive
Compression mode                         : Lossy
Bits/(Pixel*Frame)                       : 0.191
Stream size                              : 897 MiB (90%)
Writing library                          : Lavc52.97.0

Audio
ID                                       : 1
Format                                   : MPEG Audio
Format version                           : Version 1
Format profile                           : Layer 3
Mode                                     : Joint stereo
Mode extension                           : MS Stereo
Codec ID                                 : 55
Codec ID/Hint                            : MP3
Duration                                 : 1h 38mn
Bit rate mode                            : Constant
Bit rate                                 : 128 Kbps
Channel(s)                               : 2 channels
Sampling rate                            : 48.0 KHz
Compression mode                         : Lossy
Stream size                              : 90.5 MiB (9%)
Alignment                                : Aligned on interleaves
Interleave, duration                     : 24 ms (0.73 video frame)
Interleave, preload duration             : 24 ms






http://www69.zippyshare.com/v/87156589/file.html
http://www68.zippyshare.com/v/44469303/file.html
http://www12.zippyshare.com/v/67047473/file.html
http://www72.zippyshare.com/v/67932694/file.html
http://www64.zippyshare.com/v/13466973/file.html
Pompeya [TSHQ][VOSE][2014]
5 Puntos Score: 5/10
Visitas: 1858 Favoritos: 1
Ver los usuarios que votaron...
3 Comentarios Pompeya [TSHQ][VOSE][2014]
excelente muchas gracias
BAJANDO MUCHAS GRACIAS
Para dejar un comentario Registrate! o.. eres ya usuario? Accede!