Noah [TSHQ][VOSE][2014]




Superproducción épica sobre la figura bíblica de Noé. En un mundo destruido por la perversión de los hombres, un humilde carpintero llamado Noé (Russell Crowe) recibe una importante misión que será trascendental para la evolución y el desarrollo de la raza humana. Dios, cansado del corrupto y depravado comportamiento de los seres humanos a los que él mismo dio vida, advierte a Noé de un necesario e inminente diluvio universal que depure y libere a la tierra de la acción humana.
Noé tendrá que construir un arca gigante para salvar a su familia, donde deberá reunir a una pareja de cada especie animal para preservar su conservación y crecimiento tras el apocalíptico diluvio que acabará con la humanidad y su fatídica conducta. El arca evitará que los seres que estén dentro mueran ahogados y los mantendrá con vida para una posterior reconstrucción del universo.



Título: Noé
Título original: Noah
Dirección: Darren Aronofsky
País: Estados Unidos
Año: 2014
Fecha de estreno: 04/04/2014
Duración: 138 min
Género: Drama, Fantástico
Calificación: No recomendada para menores de 12 años
Reparto: Russell Crowe, Jennifer Connelly, Emma Watson, Anthony Hopkins, Logan Lerman, Ray Winstone, Kevin Durand, Marton Csokas, Sami Gayle, Mark Margolis
Web: NOÉ | EN CARTEL
Distribuidora: Paramount Pictures
Productora: New Regency Pictures, Protozoa Pictures, Disruption Entertainment

General
Format                                   : AVI
Format/Info                              : Audio Video Interleave
Format profile                           : OpenDML
File size                                : 1.41 GiB
Duration                                 : 2h 2mn
Overall bit rate                         : 1 654 Kbps
Writing application                      : Lavf52.84.0

Video
ID                                       : 0
Format                                   : MPEG-4 Visual
Codec ID                                 : FMP4
Duration                                 : 2h 2mn
Bit rate                                 : 1 511 Kbps
Width                                    : 864 pixels
Height                                   : 480 pixels
Display aspect ratio                     : 16:9
Frame rate                               : 29.970 fps
Color space                              : YUV
Chroma subsampling                       : 4:2:0
Compression mode                         : Lossy
Bits/(Pixel*Frame)                       : 0.122
Stream size                              : 1.29 GiB (91%)

Audio
ID                                       : 1
Format                                   : MPEG Audio
Format version                           : Version 1
Format profile                           : Layer 3
Mode                                     : Joint stereo
Mode extension                           : MS Stereo
Codec ID                                 : 55
Codec ID/Hint                            : MP3
Duration                                 : 2h 2mn
Bit rate mode                            : Constant
Bit rate                                 : 128 Kbps
Channel(s)                               : 2 channels
Sampling rate                            : 48.0 KHz
Compression mode                         : Lossy
Stream size                              : 112 MiB (8%)
Alignment                                : Aligned on interleaves
Interleave, duration                     : 24 ms (0.72 video frame)






http://www36.zippyshare.com/v/72386690/file.html
http://www38.zippyshare.com/v/10690284/file.html
http://www70.zippyshare.com/v/8020487/file.html
http://www43.zippyshare.com/v/30202886/file.html
http://www3.zippyshare.com/v/3746072/file.html
http://www56.zippyshare.com/v/17303700/file.html
http://www9.zippyshare.com/v/26986415/file.html
http://www5.zippyshare.com/v/3892558/file.html
Noah [TSHQ][VOSE][2014]
10 Puntos Score: 10/10
Visitas: 5811 Favoritos: 2
Ver los usuarios que votaron...
11 Comentarios Noah [TSHQ][VOSE][2014]
Cita Ghinitho: Mostrar
esta es VOSE el titulo lo indica, la latino esta aqui http://www.identi.li/index.php?topic=308694
Disculpa, pero que significan las siglas TSHQ y VOSE??. Espero su respuesta. Gracias.  
Cita PEGASOKOGA: Mostrar
TSHQ = Telesync Screener High Quality
VOSE = Version Original Subtitulada Espa?
parecia interesante pero no tiene nada que ver con la bibila...
Cita xskebix: Mostrar
Por que nadie sube esta pelicula en una calidad como la gente,
protozook la pelicula no hace mucho que salio si gustas verla en buena calidad ve al cine o comprala, haz el favor de ser agradecido ya que la estas viendo de a gratis y por lo menos ya sabes de que se trata.
Para dejar un comentario Registrate! o.. eres ya usuario? Accede!