Noah [TSHQ][Latino][2014]




Superproducción épica sobre la figura bíblica de Noé. En un mundo destruido por la perversión de los hombres, un humilde carpintero llamado Noé (Russell Crowe) recibe una importante misión que será trascendental para la evolución y el desarrollo de la raza humana. Dios, cansado del corrupto y depravado comportamiento de los seres humanos a los que él mismo dio vida, advierte a Noé de un necesario e inminente diluvio universal que depure y libere a la tierra de la acción humana.
Noé tendrá que construir un arca gigante para salvar a su familia, donde deberá reunir a una pareja de cada especie animal para preservar su conservación y crecimiento tras el apocalíptico diluvio que acabará con la humanidad y su fatídica conducta. El arca evitará que los seres que estén dentro mueran ahogados y los mantendrá con vida para una posterior reconstrucción del universo.



Título: Noé
Título original: Noah
Dirección: Darren Aronofsky
País: Estados Unidos
Año: 2014
Fecha de estreno: 04/04/2014
Duración: 138 min
Género: Drama, Fantástico
Calificación: No recomendada para menores de 12 años
Reparto: Russell Crowe, Jennifer Connelly, Emma Watson, Anthony Hopkins, Logan Lerman, Ray Winstone, Kevin Durand, Marton Csokas, Sami Gayle, Mark Margolis
Web: NOÉ | EN CARTEL
Distribuidora: Paramount Pictures
Productora: New Regency Pictures, Protozoa Pictures, Disruption Entertainment

General
Format                                   : MPEG-4
Format profile                           : Base Media
Codec ID                                 : isom
File size                                : 732 MiB
Duration                                 : 2h 2mn
Overall bit rate mode                    : Variable
Overall bit rate                         : 839 Kbps
Writing application                      : Lavf54.63.104

Video
ID                                       : 1
Format                                   : AVC
Format/Info                              : Advanced Video Codec
Format profile                           : [email protected]
Format settings, CABAC                   : Yes
Format settings, ReFrames                : 4 frames
Codec ID                                 : avc1
Codec ID/Info                            : Advanced Video Coding
Duration                                 : 2h 2mn
Bit rate                                 : 750 Kbps
Width                                    : 720 pixels
Height                                   : 336 pixels
Display aspect ratio                     : 2.130
Frame rate mode                          : Constant
Frame rate                               : 23.976 fps
Color space                              : YUV
Chroma subsampling                       : 4:2:0
Bit depth                                : 8 bits
Scan type                                : Progressive
Bits/(Pixel*Frame)                       : 0.129
Stream size                              : 657 MiB (90%)
Writing library                          : x264 core 120 r2151 a3f4407
Encoding settings                        : cabac=1 / ref=3 / deblock=1:0:0 / analyse=0x3:0x113 / me=hex / subme=7 / psy=1 / psy_rd=1.00:0.00 / mixed_ref=1 / me_range=16 / chroma_me=1 / trellis=1 / 8x8dct=1 / cqm=0 / deadzone=21,11 / fast_pskip=1 / chroma_qp_offset=-2 / threads=16 / sliced_threads=0 / nr=0 / decimate=1 / interlaced=0 / bluray_compat=0 / constrained_intra=0 / bframes=3 / b_pyramid=2 / b_adapt=1 / b_bias=0 / direct=1 / weightb=1 / open_gop=0 / weightp=2 / keyint=25 / keyint_min=2 / scenecut=40 / intra_refresh=0 / rc_lookahead=25 / rc=abr / mbtree=1 / bitrate=750 / ratetol=1.0 / qcomp=0.60 / qpmin=0 / qpmax=69 / qpstep=4 / ip_ratio=1.40 / aq=1:1.00

Audio
ID                                       : 2
Format                                   : AAC
Format/Info                              : Advanced Audio Codec
Format profile                           : LC
Codec ID                                 : 40
Duration                                 : 2h 1mn
Duration_LastFrame                       : -8ms
Bit rate mode                            : Variable
Bit rate                                 : 82.7 Kbps
Maximum bit rate                         : 128 Kbps
Channel(s)                               : 2 channels
Channel positions                        : Front: L R
Sampling rate                            : 24.0 KHz
Compression mode                         : Lossy
Stream size                              : 72.2 MiB (10%)






http://www44.zippyshare.com/v/41413641/file.html
http://www44.zippyshare.com/v/63849138/file.html
http://www21.zippyshare.com/v/61275995/file.html
http://www35.zippyshare.com/v/85849664/file.html
Noah [TSHQ][Latino][2014]
0 Puntos Score: 0/10
Visitas: 6069 Favoritos: 1
11 Comentarios Noah [TSHQ][Latino][2014]
Gracias!!! Te aviso que tiene que estar en pel?
Cita pablortega: Mostrar
Ayer la vi en el cine, buena la peli pero no tiene que ver nada con Noe, el noe de aqui esta loco.
amigos que tal se ve la calidad de la pelicula
 
Con todo respeto la calidad esta hasta el queso no lo bajen
LA UNICA RAZON PARA VERLA ES POR EMMA WATSON
Cita L_M_M: Mostrar
SI  
GRACIAS BAJANDO XD  
Cita jerrymh: Mostrar
y asumo que al original tu lo conociste muy bien y no era asi, cierto
Cita Lord_Drakul: Mostrar

Asi es algun problema con eso?
ema watson es lesbiana resignense
Para dejar un comentario Registrate! o.. eres ya usuario? Accede!