Need For Speed [TSHQ][Castellano][2014]




Tobey Marshall (Aaron Paul) es un humilde mecánico que intenta sacar adelante su taller de reparaciones de la mejor manera posible. Como el dinero no le llega, participa en carreras ilegales al volante de coches clásicos cuyos motores han sido trucados. Cuando está a punto de saldar sus deudas, el ex piloto de NASCAR Dino Brewster (Dominic Cooper) le delata. Tobey pasa dos años en la cárcel. Cuando sale, sólo piensa en vengarse de Dino. Pero para ello tendrá que recorrer los Estados Unidos de costa a costa, en una contrarreloj muy peligrosa porque la policía irá siempre pisándole los talones.



Título: Need for Speed
Título original: Need for Speed
Dirección: Scott Waugh
País: Estados Unidos
Año: 2014
Fecha de estreno: 04/04/2014
Duración: 132 min
Género: Criminal, Drama, Acción
Calificación: No recomendada para menores de 16 años
Reparto: Michael Keaton, Aaron Paul, Imogen Poots, Dominic Cooper, Ramon Rodriguez, Rami Malek, Harrison Gilbertson, Dakota Johnson, Nick Chinlund
Web: www.theneedforspeedmovie.com
Distribuidora: DeA Planeta Home Entertainment
Productora: DreamWorks SKG, Reliance Entertainment, Bandito Brothers, Electronic Arts (EA)

General
Format                                   : AVI
Format/Info                              : Audio Video Interleave
File size                                : 963 MiB
Duration                                 : 2h 1mn
Overall bit rate                         : 1 105 Kbps
Writing application                      : VirtualDubMod 1.5.10.2 (build 2540/release)
Writing library                          : VirtualDubMod build 2540/release

Video
ID                                       : 0
Format                                   : MPEG-4 Visual
Format profile                           : [email protected]
Format settings, BVOP                    : No
Format settings, QPel                    : No
Format settings, GMC                     : No warppoints
Format settings, Matrix                  : Default (H.263)
Codec ID                                 : FMP4
Duration                                 : 2h 1mn
Bit rate                                 : 903 Kbps
Width                                    : 720 pixels
Height                                   : 362 pixels
Display aspect ratio                     : 1.989
Frame rate                               : 23.976 fps
Color space                              : YUV
Chroma subsampling                       : 4:2:0
Bit depth                                : 8 bits
Scan type                                : Progressive
Compression mode                         : Lossy
Bits/(Pixel*Frame)                       : 0.145
Stream size                              : 787 MiB (82%)
Writing library                          : Lavc52.97.0

Audio
ID                                       : 1
Format                                   : MPEG Audio
Format version                           : Version 1
Format profile                           : Layer 3
Codec ID                                 : 55
Codec ID/Hint                            : MP3
Duration                                 : 2h 1mn
Bit rate mode                            : Constant
Bit rate                                 : 192 Kbps
Channel(s)                               : 2 channels
Sampling rate                            : 44.1 KHz
Compression mode                         : Lossy
Stream size                              : 167 MiB (17%)
Alignment                                : Split accross interleaves
Interleave, duration                     : 42 ms (1.00 video frame)
Interleave, preload duration             : 500 ms






http://www40.zippyshare.com/v/42046773/file.html
http://www22.zippyshare.com/v/88776493/file.html
http://www62.zippyshare.com/v/28853076/file.html
http://www9.zippyshare.com/v/56303538/file.html
http://www52.zippyshare.com/v/35240260/file.html
Need For Speed [TSHQ][Castellano][2014]
0 Puntos Score: 0/10
Visitas: 2968 Favoritos: 3
2 Comentarios Need For Speed [TSHQ][Castellano][2014]
UCHA GRACIAS YA LA VEO EN UN RATO XD  
bajando Gracias
Para dejar un comentario Registrate! o.. eres ya usuario? Accede!