Fachon Models[TSHQ][Latino][2014]




Ulises, un simpático aspirante a actor de teatro, obeso y comedor compulsivo, soñador y enamorado, vive relegado al mundo de los infomerciales por su físico. En un universo donde la imagen lo es todo, Ulises hará hasta lo imposible por llegar a los escenarios. Sus planes se trastocan cuando accidentalmente se reencuentra con Carolina, el amor de su infancia, quien se ha convertido en una hermosa y exitosa profesionista. Dispuesto a conquistarla, decide perder peso y ganar dinero, hazaña en la que lo acompañará su mejor amigo, el Charal, un joven de clase baja, imprudente y carismático, que desea por sobre todas las cosas salir en la tele. Ulises, el Charal y Carolina se enfrentarán a las situaciones más divertidas y crudas verdades de la vida, en una comedia romántica hilarante y llena de lecciones? 



Título original: Fachon Models
Año: 2014
Duración: 100 min.
País: México
Director: Rafael Montero
Guión: Gustavo Moheno, Angel Pulido, Valentín Trujillo Sentíes
Música: Diego Westendarp 
Fotografía: Horacio Marquínez
Reparto: Eugenio Bartilotti, Adriana Louvier, Héctor Jiménez, Alejandra Adame, Verónica Terán, Edgar Vivar, Flavio Medina, Arturo Barba, Valentín Trujillo Jr., Gina Morett, Jorge Arvizu, Jorge Calderon, Ángel Calderón, Alejandro Usigli, Mario Del Rio, Rogelio Frausto, Scarlett Bavo, Martha Claudia Moreno, Teresa Ruiz, Daniel Martinez, Flora Fernández, Luis Arrieta, Raúl Méndez, Jean Bernard Tenaille
Productora: BH5 Group / Balero Films / Eficine 226
Género: Comedia 

General
Format/Info                              : Audio Video Interleave
File size                                : 950 MiB
Duration                                 : 1h 25mn
Overall bit rate                         : 1 559 Kbps
Writing application                      : Lavf53.32.100
Original source form/Name                : Fachon.Models.TSHQ.Latino

Video
ID                                       : 0
Format                                   : AVC
Format/Info                              : Advanced Video Codec
Format profile                           : [email protected]
Format settings, CABAC                   : Yes
Format settings, ReFrames                : 2 frames
Codec ID                                 : H264
Duration                                 : 1h 25mn
Bit rate                                 : 1 419 Kbps
Width                                    : 720 pixels
Height                                   : 382 pixels
Display aspect ratio                     : 1.885
Frame rate                               : 23.976 fps
Color space                              : YUV
Chroma subsampling                       : 4:2:0
Bit depth                                : 8 bits
Scan type                                : Progressive
Bits/(Pixel*Frame)                       : 0.215
Stream size                              : 865 MiB (91%)
Writing library                          : x264 core
Color primaries                          : BT.601-6 525, BT.1358 525, BT.1700 NTSC, SMPTE 170M
Transfer characteristics                 : BT.709-5, BT.1361
Matrix coefficients                      : BT.601-6 525, BT.1358 525, BT.1700 NTSC, SMPTE 170M

Audio
ID                                       : 1
Format                                   : MPEG Audio
Format version                           : Version 1
Format profile                           : Layer 3
Mode                                     : Joint stereo
Mode extension                           : MS Stereo
Codec ID                                 : 55
Codec ID/Hint                            : MP3
Duration                                 : 1h 25mn
Bit rate mode                            : Constant
Bit rate                                 : 128 Kbps
Channel(s)                               : 2 channels
Sampling rate                            : 48.0 KHz
Compression mode                         : Lossy
Stream size                              : 78.0 MiB (8%)
Alignment                                : Aligned on interleaves
Interleave, duration                     : 24 ms (0.58 video frame)






http://www72.zippyshare.com/v/52418992/file.html
http://www49.zippyshare.com/v/62292880/file.html
http://www72.zippyshare.com/v/98206709/file.html
http://www22.zippyshare.com/v/56383478/file.html
http://www71.zippyshare.com/v/5366422/file.html
Fachon Models[TSHQ][Latino][2014]
8 Puntos Score: 4/10
Visitas: 2021 Favoritos: 1
Ver los usuarios que votaron...
1 Comentarios Fachon Models[TSHQ][Latino][2014]
Para dejar un comentario Registrate! o.. eres ya usuario? Accede!