Shocking Blue - The Best Of (1986)(Wavpack)(Mg)










Información:


Formato: Wapackv (image + .cue) + Log

Año: 1986

Covers: En el rar




Lista de canciones


01. Venus 

02. Hot Sand 

03. Demon Lover 

04. Never Release The One You Love 

05. Blossom Lady 

06. Shocking You 

07. Long Lonesome Road 

08. Never Marry A Railroadman 

09. Mighty Joe 

10. Inkpot 

11. Time Slips Away 

12. Out Of Sight Out Of Mind 

13. Send Me A Postcard 

14. Hello Darkness 




Log:

Exact Audio Copy V1.0 beta 3 from 29. August 2011

EAC extraction logfile from 28. August 2013, 21:54

Shocking Blue / The Best Of Shocking Blue

Used drive  : Optiarc DVD RW AD-7280S   Adapter: 3  ID: 1

Read mode               : Secure
Utilize accurate stream : Yes
Defeat audio cache      : Yes
Make use of C2 pointers : No

Read offset correction                      : 48
Overread into Lead-In and Lead-Out          : No
Fill up missing offset samples with silence : Yes
Delete leading and trailing silent blocks   : No
Null samples used in CRC calculations       : Yes
Used interface                              : Native Win32 interface for Win NT & 2000

Used output format              : User Defined Encoder
Selected bitrate                : 1024 kBit/s
Quality                         : High
Add ID3 tag                     : No
Command line compressor         : C:Program Files (x86)Exact Audio Copywavpack.exe
Additional command line options : -hlmx2 %source% %dest%


TOC of the extracted CD

     Track |   Start  |  Length  | Start sector | End sector 
    ---------------------------------------------------------
        1  |  0:00.37 |  3:02.28 |        37    |    13714   
        2  |  3:02.65 |  2:35.60 |     13715    |    25399   
        3  |  5:38.50 |  6:00.15 |     25400    |    52414   
        4  | 11:38.65 |  2:57.30 |     52415    |    65719   
        5  | 14:36.20 |  3:29.72 |     65720    |    81466   
        6  | 18:06.17 |  3:00.25 |     81467    |    94991   
        7  | 21:06.42 |  2:48.18 |     94992    |   107609   
        8  | 23:54.60 |  3:03.35 |    107610    |   121369   
        9  | 26:58.20 |  3:09.20 |    121370    |   135564   
       10  | 30:07.40 |  2:38.57 |    135565    |   147471   
       11  | 32:46.22 |  2:21.73 |    147472    |   158119   
       12  | 35:08.20 |  2:43.12 |    158120    |   170356   
       13  | 37:51.32 |  2:39.10 |    170357    |   182291   
       14  | 40:30.42 |  2:55.05 |    182292    |   195421   


Range status and errors

Selected range

     Filename I:PrepareShocking Blue - The Best Of Shocking BlueShocking Blue - The Best Of Shocking Blue.wav

     Peak level 95.5 %
     Extraction speed 7.4 X
     Range quality 100.0 %
     Test CRC 59AFDF1F
     Copy CRC 59AFDF1F
     Copy OK

No errors occurred

 
AccurateRip summary
 
Track  1  not present in database
Track  2  not present in database
Track  3  not present in database
Track  4  not present in database
Track  5  not present in database
Track  6  not present in database
Track  7  not present in database
Track  8  not present in database
Track  9  not present in database
Track 10  not present in database
Track 11  not present in database
Track 12  not present in database
Track 13  not present in database
Track 14  not present in database
 
None of the tracks are present in the AccurateRip database

End of status report

==== Log checksum 53B76C9CFB1DBE7A512DA7285978324BD5CA6ACD0D2089D333171BB4FBCDBAE3 ====







Contraseña: ellocoboni




Shocking Blue - The Best Of (1986)(Wavpack)(Mg)
45 Puntos Score: 9/10
Visitas: 756 Favoritos: 3
Ver los usuarios que votaron...
12 Comentarios Shocking Blue - The Best Of (1986)(Wavpack)(Mg)
Excelente aporte!!!  
@sawadypap
Gracias por pasar y por los puntos  
De nada!!! ya bajado, descomprimido y disfrutando!!!
@sawadypap
Ja ja me alegra que te haya gustado  , saludos
Muy buena banda. Gracias por compartir.    
@Gatuche
Gracias por pasar y por los puntos  
@SALAGUIN7K
Gracias por tu visita y por los puntos  
no lo puedes poner en Mega, ya que el JDownloader no anda en mi maquina....
ya lo baje, esta muy bueno  
@pablodemon
Gracias por tu visita  

@Mizuki
Gracias por pasar y por los puntos    
muchas gracias ellocoboni.....gracias por tu tiempo.......
y por el link......
Para dejar un comentario Registrate! o.. eres ya usuario? Accede!