The Nut Job [HDRip720p][VOSE][2014]




En el parque de una gran ciudad, la ardilla Surly ha sido expulsada de la comunidad por los otros animales debido a sus repentinos ataques de gula, los cuales han acabado con todas las reservas. Mientras deambula por las calles con la única compañía de la ratita Buddy, Surly descubre un almacén de frutos secos que podría suponer su salvación... y la vía para ganarse el perdón de la comunidad de animales del parque.



Título: The Nut Job
Título original: The Nut Job
Dirección: Peter Lepeniotis
País: Canadá, Estados Unidos, Corea del sur
Año: 2014
Fecha de estreno: 16/01/2014
Duración: 85 min
Género: Comedia, Animación, Aventuras
Calificación: Apta para todos los públicos
Reparto: Will Arnett, Katherine Heigl, Brendan Fraser, Liam Neeson, Stephen Lang, Sarah Gadon, Maya Rudolph, Jeff Dunham, Gabriel Iglesias, Scott Yaphe
Distribuidora: No disponible
Productora: No disponible

General
Format                                   : AVI
Format/Info                              : Audio Video Interleave
Format profile                           : OpenDML
File size                                : 1.82 GiB
Duration                                 : 1h 21mn
Overall bit rate                         : 3 179 Kbps
Writing application                      : Lavf52.84.0

Video
ID                                       : 0
Format                                   : MPEG-4 Visual
Format profile                           : [email protected]
Format settings, BVOP                    : No
Format settings, QPel                    : No
Format settings, GMC                     : No warppoints
Format settings, Matrix                  : Default (H.263)
Codec ID                                 : XVID
Codec ID/Hint                            : XviD
Duration                                 : 1h 21mn
Bit rate                                 : 3 102 Kbps
Width                                    : 1 280 pixels
Height                                   : 720 pixels
Display aspect ratio                     : 16:9
Frame rate                               : 25.000 fps
Color space                              : YUV
Chroma subsampling                       : 4:2:0
Bit depth                                : 8 bits
Scan type                                : Progressive
Compression mode                         : Lossy
Bits/(Pixel*Frame)                       : 0.135
Stream size                              : 1.78 GiB (98%)
Writing library                          : Lavc52.97.0

Audio
ID                                       : 1
Format                                   : MPEG Audio
Format version                           : Version 1
Format profile                           : Layer 3
Mode                                     : Joint stereo
Mode extension                           : MS Stereo
Codec ID                                 : 55
Codec ID/Hint                            : MP3
Duration                                 : 42mn 11s
Bit rate mode                            : Constant
Bit rate                                 : 128 Kbps
Channel(s)                               : 2 channels
Sampling rate                            : 48.0 KHz
Compression mode                         : Lossy
Stream size                              : 38.6 MiB (2%)
Alignment                                : Aligned on interleaves
Interleave, duration                     : 47 ms (1.17 video frame)






http://www11.zippyshare.com/v/40060709/file.html
http://www10.zippyshare.com/v/65703204/file.html
http://www65.zippyshare.com/v/17868978/file.html
http://www61.zippyshare.com/v/44857906/file.html
http://www23.zippyshare.com/v/48318003/file.html
http://www78.zippyshare.com/v/15128685/file.html
http://www73.zippyshare.com/v/20555750/file.html
http://www66.zippyshare.com/v/30859300/file.html
http://www9.zippyshare.com/v/82199426/file.html
http://www64.zippyshare.com/v/15376750/file.html
The Nut Job [HDRip720p][VOSE][2014]
0 Puntos Score: 0/10
Visitas: 2641 Favoritos: 0
5 Comentarios The Nut Job [HDRip720p][VOSE][2014]
Gracias por la peli dime esta en ingles???
MUchas gracias!!  
Deberias de mirar lo que posteas antes de hacerlo, la pel?
@riderbmx cierto amigo para que no te pase lo mismo aqui hice un post http://www.identi.li/index.php?topic=312821
Para dejar un comentario Registrate! o.. eres ya usuario? Accede!