Paranormal Activity [HDRip 720p][vose][2013]




En este 'spin-off' de la famosa saga de terror 'Paranormal Activity', seguimos la historia de Jesse (Andrew Jacobs), un chico que, tras ser marcado por las fuerzas del mal, es perseguido por el mismísimo demonio. Su familia y amigos intentan salvarlo, pero el pobre Jesse está cada vez más cerca de irse al otro barrio... A su alrededor, las actividades paranormales no cesan de sucederse.



Título: Paranormal Activity: Los señalados
Título original: Paranormal Activity: The Marked Ones
Dirección: Christopher B. Landon
País: Estados Unidos
Año: 2013
Fecha de estreno: 01/01/2014
Duración: 84 min
Género: Terror
Calificación: No recomendada para menores de 16 años
Reparto: Carlos Pratts, Eddie J. Fernandez, Andrew Jacobs, Molly Ephraim, Katie Featherston, Andrew Jacobson
Web: www.paranormalactivity-lapelicula.es
Distribuidora: Paramount Pictures
Productora: Paramount Pictures

General
Format                                   : AVI
Format/Info                              : Audio Video Interleave
Format profile                           : OpenDML
File size                                : 1.76 GiB
Duration                                 : 1h 41mn
Overall bit rate                         : 2 478 Kbps
Writing application                      : Lavf52.84.0

Video
ID                                       : 0
Format                                   : MPEG-4 Visual
Codec ID                                 : FMP4
Duration                                 : 1h 41mn
Bit rate                                 : 2 336 Kbps
Width                                    : 1 280 pixels
Height                                   : 720 pixels
Display aspect ratio                     : 16:9
Frame rate                               : 29.970 fps
Color space                              : YUV
Chroma subsampling                       : 4:2:0
Compression mode                         : Lossy
Bits/(Pixel*Frame)                       : 0.085
Stream size                              : 1.66 GiB (94%)

Audio
ID                                       : 1
Format                                   : MPEG Audio
Format version                           : Version 1
Format profile                           : Layer 3
Mode                                     : Joint stereo
Mode extension                           : MS Stereo
Codec ID                                 : 55
Codec ID/Hint                            : MP3
Duration                                 : 1h 41mn
Bit rate mode                            : Constant
Bit rate                                 : 128 Kbps
Channel(s)                               : 2 channels
Sampling rate                            : 48.0 KHz
Compression mode                         : Lossy
Stream size                              : 92.9 MiB (5%)
Alignment                                : Aligned on interleaves
Interleave, duration                     : 24 ms (0.72 video frame)
Writing library                          : LAME3.98.4






http://www20.zippyshare.com/v/92531487/file.html
http://www1.zippyshare.com/v/37392051/file.html
http://www60.zippyshare.com/v/44935542/file.html
http://www69.zippyshare.com/v/63087413/file.html
http://www27.zippyshare.com/v/6485962/file.html
http://www22.zippyshare.com/v/8413600/file.html
http://www20.zippyshare.com/v/43173672/file.html
http://www64.zippyshare.com/v/91025763/file.html
http://www72.zippyshare.com/v/9592104/file.html
Paranormal Activity [HDRip 720p][vose][2013]
5 Puntos Score: 5/10
Visitas: 461 Favoritos: 0
Ver los usuarios que votaron...
0 Comentarios Paranormal Activity [HDRip 720p][vose][2013]
Este post no tiene comentarios. Sea el primero!
Para dejar un comentario Registrate! o.. eres ya usuario? Accede!