Paranormal Activity [HDRip][VOSE][2013]




En este 'spin-off' de la famosa saga de terror 'Paranormal Activity', seguimos la historia de Jesse (Andrew Jacobs), un chico que, tras ser marcado por las fuerzas del mal, es perseguido por el mismísimo demonio. Su familia y amigos intentan salvarlo, pero el pobre Jesse está cada vez más cerca de irse al otro barrio... A su alrededor, las actividades paranormales no cesan de sucederse.



Título: Paranormal Activity: Los señalados
Título original: Paranormal Activity: The Marked Ones
Dirección: Christopher B. Landon
País: Estados Unidos
Año: 2013
Fecha de estreno: 01/01/2014
Duración: 84 min
Género: Terror
Calificación: No recomendada para menores de 16 años
Reparto: Carlos Pratts, Eddie J. Fernandez, Andrew Jacobs, Molly Ephraim, Katie Featherston, Andrew Jacobson
Web: www.paranormalactivity-lapelicula.es
Distribuidora: Paramount Pictures
Productora: Paramount Pictures

General
Format                                   : MPEG-4
Format profile                           : Base Media
Codec ID                                 : isom
File size                                : 599 MiB
Duration                                 : 1h 41mn
Overall bit rate mode                    : Variable
Overall bit rate                         : 825 Kbps
Album                                    : Paranormal.Activity.The.Marked.Ones.2013.HD.LATINO
Writing application                      : Lavf54.63.104

Video
ID                                       : 1
Format                                   : AVC
Format/Info                              : Advanced Video Codec
Format profile                           : [email protected]
Format settings, CABAC                   : Yes
Format settings, ReFrames                : 4 frames
Codec ID                                 : avc1
Codec ID/Info                            : Advanced Video Coding
Duration                                 : 1h 41mn
Bit rate                                 : 750 Kbps
Width                                    : 720 pixels
Height                                   : 400 pixels
Display aspect ratio                     : 16:9
Frame rate mode                          : Constant
Frame rate                               : 23.976 fps
Color space                              : YUV
Chroma subsampling                       : 4:2:0
Bit depth                                : 8 bits
Scan type                                : Progressive
Bits/(Pixel*Frame)                       : 0.109
Stream size                              : 536 MiB (90%)
Writing library                          : x264 core 120 r2151 a3f4407
Encoding settings                        : cabac=1 / ref=3 / deblock=1:0:0 / analyse=0x3:0x113 / me=hex / subme=7 / psy=1 / psy_rd=1.00:0.00 / mixed_ref=1 / me_range=16 / chroma_me=1 / trellis=1 / 8x8dct=1 / cqm=0 / deadzone=21,11 / fast_pskip=1 / chroma_qp_offset=-2 / threads=16 / sliced_threads=0 / nr=0 / decimate=1 / interlaced=0 / bluray_compat=0 / constrained_intra=0 / bframes=3 / b_pyramid=2 / b_adapt=1 / b_bias=0 / direct=1 / weightb=1 / open_gop=0 / weightp=2 / keyint=25 / keyint_min=2 / scenecut=40 / intra_refresh=0 / rc_lookahead=25 / rc=abr / mbtree=1 / bitrate=750 / ratetol=1.0 / qcomp=0.60 / qpmin=0 / qpmax=69 / qpstep=4 / ip_ratio=1.40 / aq=1:1.00

Audio
ID                                       : 2
Format                                   : AAC
Format/Info                              : Advanced Audio Codec
Format profile                           : LC
Codec ID                                 : 40
Duration                                 : 1h 41mn
Duration_LastFrame                       : -32ms
Bit rate mode                            : Variable
Bit rate                                 : 82.4 Kbps
Maximum bit rate                         : 128 Kbps
Channel(s)                               : 2 channels
Channel positions                        : Front: L R
Sampling rate                            : 24.0 KHz
Compression mode                         : Lossy
Stream size                              : 59.8 MiB (10%)






http://www50.zippyshare.com/v/58596139/file.html
http://www44.zippyshare.com/v/66201102/file.html
http://www15.zippyshare.com/v/4682200/file.html
Paranormal Activity [HDRip][VOSE][2013]
0 Puntos Score: 0/10
Visitas: 542 Favoritos: 0
0 Comentarios Paranormal Activity [HDRip][VOSE][2013]
Este post no tiene comentarios. Sea el primero!
Para dejar un comentario Registrate! o.. eres ya usuario? Accede!