La Leyenda de Hercules [BRSCR][Castellano][2014]




Estamos en la Antigua Grecia, en el año 1200 antes de Cristo. La reina Alcmena (Roxanne McKee) ha sucumbido al poder sexual de Zeus y ha dado a luz a un hijo llamado Hércules cuya misión es devolver la paz a la tierra donde ha nacido. Pero Hércules no es consciente de su destino y sólo pretende una cosa: el amor de Hebe (Gaia Weiss), princesa de Creta, que está a punto de casarse con su propio hermano. Llegado el momento, Hércules deberá escoger entre salvar al mundo o seguir los instintos de su corazón. Mitología, pasión y sacrificio se dan la mano en esta cinta protagonizada por el ex miembro de 'La Saga Crepúsculo' Kellan Lutz.



Título: Hércules: El origen de la leyenda
Título original: The Legend of Hercules
Dirección: Renny Harlin
País: Estados Unidos
Año: 2014
Fecha de estreno: 24/01/2014
Duración: 99 min
Género: Aventuras, Acción
Reparto: Kellan Lutz, Gaia Weiss, Scott Adkins, Roxanne McKee, Jukka Hilden, Rade Serbedzija
Web: www.hercules3dmovie.com
Distribuidora: DeA Planeta Home Entertainment
Productora: Millennium Films

General
Format                                   : MPEG-4
Format profile                           : Base Media
Codec ID                                 : isom
File size                                : 586 MiB
Duration                                 : 1h 38mn
Overall bit rate mode                    : Variable
Overall bit rate                         : 830 Kbps
Movie name                               : YASKE.TO
Writing application                      : Lavf54.63.104

Video
ID                                       : 1
Format                                   : AVC
Format/Info                              : Advanced Video Codec
Format profile                           : [email protected]
Format settings, CABAC                   : Yes
Format settings, ReFrames                : 4 frames
Codec ID                                 : avc1
Codec ID/Info                            : Advanced Video Coding
Duration                                 : 1h 38mn
Bit rate                                 : 750 Kbps
Width                                    : 720 pixels
Height                                   : 304 pixels
Display aspect ratio                     : 2.35:1
Frame rate mode                          : Constant
Frame rate                               : 23.976 fps
Color space                              : YUV
Chroma subsampling                       : 4:2:0
Bit depth                                : 8 bits
Scan type                                : Progressive
Bits/(Pixel*Frame)                       : 0.143
Stream size                              : 524 MiB (89%)
Writing library                          : x264 core 120 r2151 a3f4407
Encoding settings                        : cabac=1 / ref=3 / deblock=1:0:0 / analyse=0x3:0x113 / me=hex / subme=7 / psy=1 / psy_rd=1.00:0.00 / mixed_ref=1 / me_range=16 / chroma_me=1 / trellis=1 / 8x8dct=1 / cqm=0 / deadzone=21,11 / fast_pskip=1 / chroma_qp_offset=-2 / threads=16 / sliced_threads=0 / nr=0 / decimate=1 / interlaced=0 / bluray_compat=0 / constrained_intra=0 / bframes=3 / b_pyramid=2 / b_adapt=1 / b_bias=0 / direct=1 / weightb=1 / open_gop=0 / weightp=2 / keyint=25 / keyint_min=2 / scenecut=40 / intra_refresh=0 / rc_lookahead=25 / rc=abr / mbtree=1 / bitrate=750 / ratetol=1.0 / qcomp=0.60 / qpmin=0 / qpmax=69 / qpstep=4 / ip_ratio=1.40 / aq=1:1.00

Audio
ID                                       : 2
Format                                   : AAC
Format/Info                              : Advanced Audio Codec
Format profile                           : LC
Codec ID                                 : 40
Duration                                 : 1h 38mn
Bit rate mode                            : Variable
Bit rate                                 : 82.7 Kbps
Maximum bit rate                         : 128 Kbps
Channel(s)                               : 2 channels
Channel positions                        : Front: L R
Sampling rate                            : 24.0 KHz
Compression mode                         : Lossy
Stream size                              : 58.3 MiB (10%)






http://www1.zippyshare.com/v/82739010/file.html
http://www22.zippyshare.com/v/10568642/file.html
http://www58.zippyshare.com/v/37181705/file.html
La Leyenda de Hercules [BRSCR][Castellano][2014]
0 Puntos Score: 0/10
Visitas: 1808 Favoritos: 0
1 Comentarios La Leyenda de Hercules [BRSCR][Castellano][2014]
gracias por el aporte
Para dejar un comentario Registrate! o.. eres ya usuario? Accede!