Divergent [TSHQ][VOSE][2014]




En un futuro no muy lejano, la sociedad estará dividida en cinco facciones. Cada una de ellas representará una virtud, y los adolescentes deberán decidir si quieren pertenecer a una u otra... por el resto de sus vidas. Tris Prior (Shailene Woodley) toma una decisión que sorprende a todo el mundo, y ahora debe afrontar las consecuencias. Participará en pruebas físicas y mentales que la dejarán exhausta y la transformarán completamente. Pero Tris padece lo que se conoce como divergencia, es decir, la imposibilidad de encajar en ninguna de las cinco facciones oficiales. Deberá llevar esto en secreto a menos que quiera convertirse en una víctima del sistema.



Título: Divergente
Título original: Divergent
Dirección: Neil Burger
País: Estados Unidos
Año: 2014
Fecha de estreno: 30/04/2014
Duración: -
Género: Romance, Aventuras, Acción
Reparto: Shailene Woodley, Maggie Q, Zoë Kravitz, Ansel Elgort, Ray Stevenson, Miles Teller, Jai Courtney, Kate Winslet, Ashley Judd, Tony Goldwyn
Distribuidora: eOne Films
Productora: Red Wagon Entertainment

General
Format                                   : MPEG-4
Format profile                           : Base Media
Codec ID                                 : isom
File size                                : 792 MiB
Duration                                 : 2h 11mn
Overall bit rate mode                    : Variable
Overall bit rate                         : 841 Kbps
Album                                    : Divergent.2014.TSHQ.VOSE
Writing application                      : Lavf54.63.104

Video
ID                                       : 1
Format                                   : AVC
Format/Info                              : Advanced Video Codec
Format profile                           : [email protected]
Format settings, CABAC                   : Yes
Format settings, ReFrames                : 4 frames
Codec ID                                 : avc1
Codec ID/Info                            : Advanced Video Coding
Duration                                 : 2h 11mn
Bit rate                                 : 750 Kbps
Width                                    : 720 pixels
Height                                   : 304 pixels
Display aspect ratio                     : 2.25:1
Frame rate mode                          : Constant
Frame rate                               : 23.976 fps
Color space                              : YUV
Chroma subsampling                       : 4:2:0
Bit depth                                : 8 bits
Scan type                                : Progressive
Bits/(Pixel*Frame)                       : 0.143
Stream size                              : 711 MiB (90%)
Writing library                          : x264 core 120 r2151 a3f4407
Encoding settings                        : cabac=1 / ref=3 / deblock=1:0:0 / analyse=0x3:0x113 / me=hex / subme=7 / psy=1 / psy_rd=1.00:0.00 / mixed_ref=1 / me_range=16 / chroma_me=1 / trellis=1 / 8x8dct=1 / cqm=0 / deadzone=21,11 / fast_pskip=1 / chroma_qp_offset=-2 / threads=16 / sliced_threads=0 / nr=0 / decimate=1 / interlaced=0 / bluray_compat=0 / constrained_intra=0 / bframes=3 / b_pyramid=2 / b_adapt=1 / b_bias=0 / direct=1 / weightb=1 / open_gop=0 / weightp=2 / keyint=25 / keyint_min=2 / scenecut=40 / intra_refresh=0 / rc_lookahead=25 / rc=abr / mbtree=1 / bitrate=750 / ratetol=1.0 / qcomp=0.60 / qpmin=0 / qpmax=69 / qpstep=4 / ip_ratio=1.40 / aq=1:1.00

Audio
ID                                       : 2
Format                                   : AAC
Format/Info                              : Advanced Audio Codec
Format profile                           : LC
Codec ID                                 : 40
Duration                                 : 2h 11mn
Duration_LastFrame                       : -37ms
Bit rate mode                            : Variable
Bit rate                                 : 82.7 Kbps
Maximum bit rate                         : 128 Kbps
Channel(s)                               : 2 channels
Channel positions                        : Front: L R
Sampling rate                            : 24.0 KHz
Compression mode                         : Lossy
Stream size                              : 77.9 MiB (10%)






http://www56.zippyshare.com/v/27027787/file.html
http://www2.zippyshare.com/v/105956/file.html
http://www3.zippyshare.com/v/19724506/file.html
http://www56.zippyshare.com/v/53540145/file.html
http://www43.zippyshare.com/v/33801839/file.html
Divergent [TSHQ][VOSE][2014]
10 Puntos Score: 10/10
Visitas: 3804 Favoritos: 1
Ver los usuarios que votaron...
14 Comentarios Divergent [TSHQ][VOSE][2014]
Buen aporte, se agradece
Primero en la Web  
Se agradecerian screenshots...
Cita inffostec: Mostrar
???? no ves las capturas?
No... ni en mi notebook ni en mi smartphone...
Cita inffostec: Mostrar
eso esta extra?
Si se ven las capturas  
ya se cayeron las partes 2 y 3  
si resubis podrias resubirlas a mega?? gracias
Poooorfis, podr?
Cita Natutw: Mostrar
men aregla los links caidos  
Cita pepex21: Mostrar
resubidos
Buenisimo, muchas gracias!!
Podrias resubirlo? Gracias.. solo estan las partesa 2 y 3 nada mas  
Para dejar un comentario Registrate! o.. eres ya usuario? Accede!