Better Living [HDRip][Latino][2014]




Relata la historia de un medico que vive en una pequeña ciudad. Su vida aburrida, y su matrimonio deteriorado, son las causas que lo llevan a tomar una vía de escape. Todo empieza a cambiar cuando el protagonista inicia un relación con una mujer casada y adicta a las drogas de fabricación casera. Poco a poco ella irá introduciendo al humilde farmacéutico en la adicción y la drogodependencia.



Título original: Better Living Through Chemistry
Año: 2014
Duración: 87 min.
País: Estados Unidos
Director: Geoff Moore, David Posamentier
Guión: Geoff Moore, David Posamentier
Música: Andrew Feltenstein, John Nau
Fotografía: Tim Suhrstedt
Reparto: Sam Rockwell, Olivia Wilde, Michelle Monaghan, Ray Liotta, Jane Fonda, Peter Jacobson, Ben Schwartz, Ali Dash, Ken Howard, Jenn Harris, Patricia Mizen
Productora: Mission Films / Occupant Entertainment
Género: Comedia. Drama

General
Format                                   : AVI
Format/Info                              : Audio Video Interleave
Format profile                           : OpenDML
File size                                : 1.16 GiB
Duration                                 : 1h 31mn
Overall bit rate                         : 1 815 Kbps
Writing application                      : Lavf52.84.0

Video
ID                                       : 0
Format                                   : MPEG-4 Visual
Codec ID                                 : FMP4
Duration                                 : 1h 31mn
Bit rate                                 : 1 669 Kbps
Width                                    : 864 pixels
Height                                   : 448 pixels
Display aspect ratio                     : 1.929
Frame rate                               : 29.970 fps
Color space                              : YUV
Chroma subsampling                       : 4:2:0
Compression mode                         : Lossy
Bits/(Pixel*Frame)                       : 0.144
Stream size                              : 1.07 GiB (92%)

Audio
ID                                       : 1
Format                                   : MPEG Audio
Format version                           : Version 1
Format profile                           : Layer 3
Mode                                     : Joint stereo
Codec ID                                 : 55
Codec ID/Hint                            : MP3
Duration                                 : 1h 31mn
Bit rate mode                            : Constant
Bit rate                                 : 128 Kbps
Channel(s)                               : 2 channels
Sampling rate                            : 48.0 KHz
Compression mode                         : Lossy
Stream size                              : 84.0 MiB (7%)
Alignment                                : Aligned on interleaves
Interleave, duration                     : 24 ms (0.72 video frame)
Writing library                          : LAME3.98.4






http://www67.zippyshare.com/v/97548798/file.html
http://www8.zippyshare.com/v/10696646/file.html
http://www6.zippyshare.com/v/19386405/file.html
http://www53.zippyshare.com/v/41479383/file.html
http://www63.zippyshare.com/v/65425423/file.html
http://www19.zippyshare.com/v/52951643/file.html
Better Living [HDRip][Latino][2014]
0 Puntos Score: 0/10
Visitas: 1308 Favoritos: 0
0 Comentarios Better Living [HDRip][Latino][2014]
Este post no tiene comentarios. Sea el primero!
Para dejar un comentario Registrate! o.. eres ya usuario? Accede!