Cronicas Diplomaticas [BRSCR][Castellano][2013]




Alexandre Taillard (Thierry Lhermitte) es un hombre alto, atractivo, carismático y el Ministro de Asuntos Exteriores del país de las luces, Francia. Su política se rige por conceptos tan diplomáticos como la legitimidad, la transparencia y la eficacia, se muestra contrario a los neoconservadores estadounidenses y ataca a la codiciosa corrupción tanto rusa como china.
Cuando Arthur Vlaminck (Raphaël Personnaz) termina sus estudios de la ENA consigue un empleo para trabajar en el departamento de comunicación del ministro Taillard, y se convierte en el encargado de redactar cada uno de sus discursos. El joven inexperto deberá abrirse paso entre los consejeros y el jefe de gabinete para poder hacerse un hueco en un entorno estresante, lleno ambición y donde las puñaladas traperas están a la orden del día.



Título: Crónicas diplomáticas
Título original: Quai d'Orsay
Dirección: Bertrand Tavernier
País: Francia
Año: 2013
Fecha de estreno: 04/04/2014
Duración: 113 min
Género: Comedia
Reparto: Thierry Lhermitte, Niels Arestrup, Anaïs Demoustier, Julie Gayet, Thierry Frémont, Sonia Rolland, Jane Birkin, Joséphine de La Baume
Distribuidora: Golem Distribución
Productora: Site 4 View Productions

General
Format                                   : MPEG-4
Format profile                           : Base Media
Codec ID                                 : isom
File size                                : 690 MiB
Duration                                 : 1h 53mn
Overall bit rate mode                    : Variable
Overall bit rate                         : 847 Kbps
Writing application                      : Lavf54.63.104

Video
ID                                       : 1
Format                                   : AVC
Format/Info                              : Advanced Video Codec
Format profile                           : [email protected]
Format settings, CABAC                   : Yes
Format settings, ReFrames                : 4 frames
Codec ID                                 : avc1
Codec ID/Info                            : Advanced Video Coding
Duration                                 : 1h 53mn
Bit rate                                 : 750 Kbps
Width                                    : 720 pixels
Height                                   : 384 pixels
Display aspect ratio                     : 1.85:1
Frame rate mode                          : Variable
Frame rate                               : 24.000 fps
Minimum frame rate                       : 12.000 fps
Maximum frame rate                       : 24.000 fps
Color space                              : YUV
Chroma subsampling                       : 4:2:0
Bit depth                                : 8 bits
Scan type                                : Progressive
Bits/(Pixel*Frame)                       : 0.113
Stream size                              : 615 MiB (89%)
Writing library                          : x264 core 120 r2151 a3f4407
Encoding settings                        : cabac=1 / ref=3 / deblock=1:0:0 / analyse=0x3:0x113 / me=hex / subme=7 / psy=1 / psy_rd=1.00:0.00 / mixed_ref=1 / me_range=16 / chroma_me=1 / trellis=1 / 8x8dct=1 / cqm=0 / deadzone=21,11 / fast_pskip=1 / chroma_qp_offset=-2 / threads=16 / sliced_threads=0 / nr=0 / decimate=1 / interlaced=0 / bluray_compat=0 / constrained_intra=0 / bframes=3 / b_pyramid=2 / b_adapt=1 / b_bias=0 / direct=1 / weightb=1 / open_gop=0 / weightp=2 / keyint=25 / keyint_min=2 / scenecut=40 / intra_refresh=0 / rc_lookahead=25 / rc=abr / mbtree=1 / bitrate=750 / ratetol=1.0 / qcomp=0.60 / qpmin=0 / qpmax=69 / qpstep=4 / ip_ratio=1.40 / aq=1:1.00

Audio
ID                                       : 2
Format                                   : AAC
Format/Info                              : Advanced Audio Codec
Format profile                           : LC
Codec ID                                 : 40
Duration                                 : 1h 53mn
Duration_LastFrame                       : -27ms
Bit rate mode                            : Variable
Bit rate                                 : 87.7 Kbps
Maximum bit rate                         : 128 Kbps
Channel(s)                               : 2 channels
Channel positions                        : Front: L R
Sampling rate                            : 24.0 KHz
Compression mode                         : Lossy
Stream size                              : 71.5 MiB (10%)






http://www26.zippyshare.com/v/67424403/file.html
http://www30.zippyshare.com/v/57336616/file.html
http://www19.zippyshare.com/v/97937276/file.html
http://www3.zippyshare.com/v/72989560/file.html
Cronicas Diplomaticas [BRSCR][Castellano][2013]
0 Puntos Score: 0/10
Visitas: 573 Favoritos: 0
1 Comentarios Cronicas Diplomaticas [BRSCR][Castellano][2013]
Muy buen aporte - Gracias x compartir
Para dejar un comentario Registrate! o.. eres ya usuario? Accede!