Rio 2 [CAM][VOSE][2014]




Blu, Perla y sus pequeños, unos traviesos guacamayos, disfrutan de una vida cómoda y entretenida en Río de Janeiro, Brasil. Sin embargo, Perla cada vez tiene más claro que sus niños, pequeños pájaros salvajes, serían más felices en el Amazonas.
Aunque una vez en la selva, su nueva vida no será tan fácil como pensaban. Sus vecinos no son los ideales, Perla se reencuentra con su padre al que hace tiempo que no veía, y los pequeños Carla, Tiago y Bia deciden no volver a la gran ciudad. Por si esto fuera poco, la cacatúa Nigel vuela hacia ellos con sed de venganza.



Título: Rio 2
Título original: Rio 2
Dirección: Carlos Saldanha
País: Estados Unidos
Año: 2014
Fecha de estreno: 04/04/2014
Duración: 101 min
Género: Comedia, Animación, Aventuras
Calificación: Apta para todos los públicos
Reparto: Anne Hathaway, Leslie Mann, Jamie Foxx, Jesse Eisenberg, Jemaine Clement, Rodrigo Santoro, Jake T. Austin, Amandla Stenberg, John Leguizamo, Andy García
Web: www.riomovies.com
Distribuidora: 20th Century Fox
Productora: Twentieth Century Fox Animation, Blue Sky Studios

General
Format                                   : AVI
Format/Info                              : Audio Video Interleave
Format profile                           : OpenDML
File size                                : 1.12 GiB
Duration                                 : 1h 32mn
Overall bit rate                         : 1 741 Kbps
Writing application                      : Lavf52.84.0

Video
ID                                       : 0
Format                                   : MPEG-4 Visual
Codec ID                                 : FMP4
Duration                                 : 1h 32mn
Bit rate                                 : 1 595 Kbps
Width                                    : 864 pixels
Height                                   : 384 pixels
Display aspect ratio                     : 2.25:1
Frame rate                               : 29.970 fps
Color space                              : YUV
Chroma subsampling                       : 4:2:0
Compression mode                         : Lossy
Bits/(Pixel*Frame)                       : 0.160
Stream size                              : 1.03 GiB (92%)

Audio
ID                                       : 1
Format                                   : MPEG Audio
Format version                           : Version 1
Format profile                           : Layer 3
Mode                                     : Joint stereo
Mode extension                           : MS Stereo
Codec ID                                 : 55
Codec ID/Hint                            : MP3
Duration                                 : 1h 32mn
Bit rate mode                            : Constant
Bit rate                                 : 128 Kbps
Channel(s)                               : 2 channels
Sampling rate                            : 48.0 KHz
Compression mode                         : Lossy
Stream size                              : 84.2 MiB (7%)
Alignment                                : Aligned on interleaves
Interleave, duration                     : 24 ms (0.72 video frame)






http://www20.zippyshare.com/v/84931664/file.html
http://www22.zippyshare.com/v/87796327/file.html
http://www70.zippyshare.com/v/81849772/file.html
http://www38.zippyshare.com/v/9951265/file.html
http://www6.zippyshare.com/v/19819865/file.html
http://www66.zippyshare.com/v/92168859/file.html
Rio 2 [CAM][VOSE][2014]
0 Puntos Score: 0/10
Visitas: 3570 Favoritos: 1
3 Comentarios Rio 2 [CAM][VOSE][2014]
Es latino?, es ingles??
Mi hija me esta volviendo loco con este pelicula.
idioma?????? ingles,latino?espa?
Cita richard201: Mostrar
Cita ticosexy: Mostrar
Para dejar un comentario Registrate! o.. eres ya usuario? Accede!