Pet Sematary 2 + Baby's Day Out/Solo Audio Latino



AUDIO AC3 5.1
Format                           : AC-3
Format/Info                      : Audio Coding 3
File size                        : 322 MiB
Duration                         : 1h 40mn
Overall bit rate                 : 448 Kbps

Audio
Format                           : AC-3
Format/Info                      : Audio Coding 3
Mode extension                   : CM (complete main)
Duration                         : 1h 40mn
Bit rate mode                    : Constant
Bit rate                         : 448 Kbps
Channel(s)                       : 6 channels
Channel positions                : Front: L C R, Side: L R, LFE
Sampling rate                    : 48.0 KHz
Bit depth                        : 16 bits
Compression mode                 : Lossy
Stream size                      : 322 MiB (100%)



https://mega.co.nz/#!Btg1iRSS!SeA9t4p_apAzLQNmEe4D_ijG-X2gW_q5IGmLFucDzYY



AUDIO AC3 5.1
Format                           : AC-3
Format/Info                      : Audio Coding 3
File size                        : 317 MiB
Duration                         : 1h 38mn
Overall bit rate                 : 448 Kbps

Audio
Format                           : AC-3
Format/Info                      : Audio Coding 3
Mode extension                   : CM (complete main)
Duration                         : 1h 38mn
Bit rate mode                    : Constant
Bit rate                         : 448 Kbps
Channel(s)                       : 6 channels
Channel positions                : Front: L C R, Side: L R, LFE
Sampling rate                    : 48.0 KHz
Bit depth                        : 16 bits
Compression mode                 : Lossy
Stream size                      : 317 MiB (100%)



https://mega.co.nz/#!J5oUnIYS!A1v-G94lSHV9hWFleaLI2Un7KqTCo4fD2QlcC4mZLtw

Audios pedidos en comunidades por el Usuario @Subidas
Pet Sematary 2 + Baby's Day Out/Solo Audio Latino
20 Puntos Score: 10/10
Visitas: 1265 Favoritos: 3
Ver los usuarios que votaron...
7 Comentarios Pet Sematary 2 + Baby's Day Out/Solo Audio Latino
Muchas gracias amigo,podrias pasarme los links por MP  
van puntos  
Cita Subidas: Mostrar
ahi los hice visibles
@_xilensis gracias pero ponle spoiler para q no se te caigan  
@Subidas si los bajas me avisas para eliminar el post
@_xilensis si ya los baje gracias  
sube la pelicula tambien man!!  
@kyolopez85 EL AMIGO SUBIDAS LAS VA A SUBIR
Para dejar un comentario Registrate! o.. eres ya usuario? Accede!