Muppets Most Wanted [CAM][Latino][2014]




La pandilla de los Muppets se va de gira por todo el mundo, llenando las mejores salas de algunas de las capitales más vibrantes de Europa como Berlín, Madrid o Londres. Pero el caos no abandona a los Muppets ni siquiera en el extranjero, ya que se ven involuntariamente atrapados en una intriga internacional que encabeza Constantine, el Delincuente Número Uno del Mundo y la viva imagen de la rana Gustavo; y Dominic, su vil compinche, alias Número Dos.



Título: El Tour de los Muppets
Título original: Muppets Most Wanted
Dirección: James Bobin
País: Estados Unidos
Año: 2014
Fecha de estreno: 18/04/2014
Duración: 112 min
Género: Comedia, Familiar, Aventuras
Calificación: Apta para todos los públicos
Reparto: Tina Fey, Ray Liotta, Ricky Gervais, Ty Burrell, Steve Whitmire, Eric Jacobson, Dave Goelz, Bill Barretta, Tom Hiddleston, Salma Hayek
Web: www.muppets.disney.com/muppets-most-wanted
Distribuidora: Walt Disney Pictures
Productora: Disney, Buena Vista

General
Format                                   : AVI
Format/Info                              : Audio Video Interleave
File size                                : 754 MiB
Duration                                 : 1h 38mn
Overall bit rate                         : 1 067 Kbps
Writing application                      : Lavf52.84.0

Video
ID                                       : 0
Format                                   : MPEG-4 Visual
Format profile                           : [email protected]
Format settings, BVOP                    : No
Format settings, QPel                    : No
Format settings, GMC                     : No warppoints
Format settings, Matrix                  : Default (H.263)
Codec ID                                 : XVID
Codec ID/Hint                            : XviD
Duration                                 : 1h 38mn
Bit rate                                 : 862 Kbps
Width                                    : 720 pixels
Height                                   : 372 pixels
Display aspect ratio                     : 1.935
Frame rate                               : 23.976 fps
Color space                              : YUV
Chroma subsampling                       : 4:2:0
Bit depth                                : 8 bits
Scan type                                : Progressive
Compression mode                         : Lossy
Bits/(Pixel*Frame)                       : 0.134
Stream size                              : 609 MiB (81%)
Writing library                          : Lavc52.97.0

Audio
ID                                       : 1
Format                                   : MPEG Audio
Format version                           : Version 1
Format profile                           : Layer 3
Mode                                     : Joint stereo
Codec ID                                 : 55
Codec ID/Hint                            : MP3
Duration                                 : 1h 38mn
Bit rate mode                            : Constant
Bit rate                                 : 192 Kbps
Channel(s)                               : 2 channels
Sampling rate                            : 48.0 KHz
Compression mode                         : Lossy
Stream size                              : 136 MiB (18%)
Alignment                                : Aligned on interleaves
Interleave, duration                     : 24 ms (0.58 video frame)
Interleave, preload duration             : 23 ms






http://www29.zippyshare.com/v/88719302/file.html
http://www24.zippyshare.com/v/96434381/file.html
http://www63.zippyshare.com/v/89958977/file.html
http://www26.zippyshare.com/v/35315248/file.html
Muppets Most Wanted [CAM][Latino][2014]
0 Puntos Score: 0/10
Visitas: 1107 Favoritos: 0
0 Comentarios Muppets Most Wanted [CAM][Latino][2014]
Este post no tiene comentarios. Sea el primero!
Para dejar un comentario Registrate! o.. eres ya usuario? Accede!