The Monkey King [TSHQ][VOSE][2014]




Nueva adaptacion de la legendaria novela china "Monkey King: Wreaking Havoc In Heavenly Palace" que correrá a cargo del director Soi Cheang (Dog Bite Dog, Accident) y del guionista de Ip Man, Edmond Wong. 



Título original: Xi you ji: Da nao tian gong (The Monkey King) (Monkey King: Wreaking Havoc in Heavenly Palace)
Año: 2014
Duración: 119 min.
País: China
Director: Cheang Pou-Soi
Guión: Kam-Yuen Szeto, Edmond Wong
Música: Christopher Young 
Fotografía: Man Po Cheung, Tao Yang 
Reparto: Donnie Yen, Aaron Kwok, Faye Wong, Kelly Chen, Gigi Leung, Peter Ho, Cheung Siu-Fai, Chen Qiao En, Monica Mok, Hai Yitian
Productora: Filmko Pictures / Global Star Productions
Género: Fantástico. Acción | Mitología. 3-D 

General
Format                                   : MPEG-4
Format profile                           : Base Media
Codec ID                                 : isom
File size                                : 711 MiB
Duration                                 : 1h 57mn
Overall bit rate mode                    : Variable
Overall bit rate                         : 843 Kbps
Movie name                               : YASKE.TO
Album                                    : The.Monkey.King.2014.TSHQ.VOSE
Writing application                      : Lavf54.63.104

Video
ID                                       : 1
Format                                   : AVC
Format/Info                              : Advanced Video Codec
Format profile                           : [email protected]
Format settings, CABAC                   : Yes
Format settings, ReFrames                : 4 frames
Codec ID                                 : avc1
Codec ID/Info                            : Advanced Video Coding
Duration                                 : 1h 57mn
Bit rate                                 : 750 Kbps
Width                                    : 720 pixels
Height                                   : 352 pixels
Display aspect ratio                     : 2.045
Frame rate mode                          : Constant
Frame rate                               : 29.970 fps
Color space                              : YUV
Chroma subsampling                       : 4:2:0
Bit depth                                : 8 bits
Scan type                                : Progressive
Bits/(Pixel*Frame)                       : 0.099
Stream size                              : 636 MiB (89%)
Writing library                          : x264 core 120 r2151 a3f4407
Encoding settings                        : cabac=1 / ref=3 / deblock=1:0:0 / analyse=0x3:0x113 / me=hex / subme=7 / psy=1 / psy_rd=1.00:0.00 / mixed_ref=1 / me_range=16 / chroma_me=1 / trellis=1 / 8x8dct=1 / cqm=0 / deadzone=21,11 / fast_pskip=1 / chroma_qp_offset=-2 / threads=16 / sliced_threads=0 / nr=0 / decimate=1 / interlaced=0 / bluray_compat=0 / constrained_intra=0 / bframes=3 / b_pyramid=2 / b_adapt=1 / b_bias=0 / direct=1 / weightb=1 / open_gop=0 / weightp=2 / keyint=25 / keyint_min=2 / scenecut=40 / intra_refresh=0 / rc_lookahead=25 / rc=abr / mbtree=1 / bitrate=750 / ratetol=1.0 / qcomp=0.60 / qpmin=0 / qpmax=69 / qpstep=4 / ip_ratio=1.40 / aq=1:1.00

Audio
ID                                       : 2
Format                                   : AAC
Format/Info                              : Advanced Audio Codec
Format profile                           : LC
Codec ID                                 : 40
Duration                                 : 1h 57mn
Duration_LastFrame                       : -11ms
Bit rate mode                            : Variable
Bit rate                                 : 82.7 Kbps
Maximum bit rate                         : 128 Kbps
Channel(s)                               : 2 channels
Channel positions                        : Front: L R
Sampling rate                            : 24.0 KHz
Compression mode                         : Lossy
Stream size                              : 69.8 MiB (10%)






http://www44.zippyshare.com/v/879946/file.html
http://www72.zippyshare.com/v/97621957/file.html
http://www37.zippyshare.com/v/29477052/file.html
http://www58.zippyshare.com/v/23743160/file.html
The Monkey King [TSHQ][VOSE][2014]
0 Puntos Score: 0/10
Visitas: 2161 Favoritos: 3
7 Comentarios The Monkey King [TSHQ][VOSE][2014]
Cita berjose: Mostrar
su titulo lo indica... version original subtitulada =)
calidad?  no se veo captura. estoy borroso si si si  
Cita maubig15: Mostrar
calidad el titulo la da [TSHQ] [Telesync Screener High Quality] y si tiene las capturas
@xskebix perfecto, no tengo punto wtf
Esto me hizo recordar a la pelicula de jet li y jacky chan
Para dejar un comentario Registrate! o.. eres ya usuario? Accede!