That Awkward Moment [TSHQ][VOSE][2014]




Jason, Daniel y Mikey (Zac Efron, Miles Teller y Michael B. Jordan) son tres amigos que desde que se conocen siempre han estado muy unidos. Ahora, los tres deben volver a reunirse para hacer terapia colectiva. Y es que sus respectivas relaciones de pareja están pasando por momentos verdaderamente complicados. La crisis de los 30, la falta de sexo, los problemas económicos y la pérdida de la pasión amorosa saldrán a la luz en esta comedia escrita y dirigida por el debutante Tom Gormican.



Título: That Awkward Moment
Título original: That Awkward Moment
Dirección: Tom Gormican
País: Estados Unidos
Año: 2014
Fecha de estreno: Próximamente
Duración: 94 min
Género: Romance, Comedia
Calificación: No recomendada para menores de 16 años
Reparto: Zac Efron, Imogen Poots, Miles Teller, Addison Timlin, Jessica Lucas, Michael B. Jordan, Emily Meade, Alysia Reiner, Josh Pais, Tina Benko
Web: www.thatawkwardmomentmovie.com
Distribuidora: Focus Features
Productora: Virgin Produced, Treehouse Pictures

General
Format                                   : MPEG-4
Format profile                           : Base Media
Codec ID                                 : isom
File size                                : 567 MiB
Duration                                 : 1h 34mn
Overall bit rate mode                    : Variable
Overall bit rate                         : 840 Kbps
Writing application                      : Lavf54.63.104

Video
ID                                       : 1
Format                                   : AVC
Format/Info                              : Advanced Video Codec
Format profile                           : [email protected]
Format settings, CABAC                   : Yes
Format settings, ReFrames                : 4 frames
Codec ID                                 : avc1
Codec ID/Info                            : Advanced Video Coding
Duration                                 : 1h 34mn
Bit rate                                 : 750 Kbps
Width                                    : 720 pixels
Height                                   : 352 pixels
Display aspect ratio                     : 2.000
Frame rate mode                          : Constant
Frame rate                               : 23.976 fps
Color space                              : YUV
Chroma subsampling                       : 4:2:0
Bit depth                                : 8 bits
Scan type                                : Progressive
Bits/(Pixel*Frame)                       : 0.123
Stream size                              : 508 MiB (90%)
Writing library                          : x264 core 120 r2151 a3f4407
Encoding settings                        : cabac=1 / ref=3 / deblock=1:0:0 / analyse=0x3:0x113 / me=hex / subme=7 / psy=1 / psy_rd=1.00:0.00 / mixed_ref=1 / me_range=16 / chroma_me=1 / trellis=1 / 8x8dct=1 / cqm=0 / deadzone=21,11 / fast_pskip=1 / chroma_qp_offset=-2 / threads=16 / sliced_threads=0 / nr=0 / decimate=1 / interlaced=0 / bluray_compat=0 / constrained_intra=0 / bframes=3 / b_pyramid=2 / b_adapt=1 / b_bias=0 / direct=1 / weightb=1 / open_gop=0 / weightp=2 / keyint=25 / keyint_min=2 / scenecut=40 / intra_refresh=0 / rc_lookahead=25 / rc=abr / mbtree=1 / bitrate=750 / ratetol=1.0 / qcomp=0.60 / qpmin=0 / qpmax=69 / qpstep=4 / ip_ratio=1.40 / aq=1:1.00

Audio
ID                                       : 2
Format                                   : AAC
Format/Info                              : Advanced Audio Codec
Format profile                           : LC
Codec ID                                 : 40
Duration                                 : 1h 34mn
Duration_LastFrame                       : -29ms
Bit rate mode                            : Variable
Bit rate                                 : 82.7 Kbps
Maximum bit rate                         : 128 Kbps
Channel(s)                               : 2 channels
Channel positions                        : Front: L R
Sampling rate                            : 24.0 KHz
Compression mode                         : Lossy
Stream size                              : 55.8 MiB (10%)






http://www14.zippyshare.com/v/94509383/file.html
http://www26.zippyshare.com/v/79800329/file.html
http://www48.zippyshare.com/v/97490187/file.html
That Awkward Moment [TSHQ][VOSE][2014]
0 Puntos Score: 0/10
Visitas: 1865 Favoritos: 1
0 Comentarios That Awkward Moment [TSHQ][VOSE][2014]
Este post no tiene comentarios. Sea el primero!
Para dejar un comentario Registrate! o.. eres ya usuario? Accede!