Capitan America 2 [CAM][VOSE][2014]




Secuela de 'Capitán América: El primer vengador'. La acción tiene lugar en Washington DC en el presente. En esta ocasión, Steve Rogers (Chris Evans) unirá sus fuerzas a Natasha Romanoff, alias la Viuda Negra (Scarlett Johansson), para librar una batalla asombrosa contra un enemigo muy duro y difícil de domesticar. Éste no es otro que un soviético que recibe el apodo de Soldado de Invierno. El futuro de la humanidad depende de la victoria del Capitán América. Pero ni siquiera los superhéroes son invencibles.



Título: Capitán América: el Soldado de Invierno
Título original: Captain America: The Winter Soldier
Dirección: Joe Russo, Anthony Russo
País: Estados Unidos
Año: 2014
Fecha de estreno: 28/03/2014
Duración: 136 min
Género: Aventuras, Acción, Ciencia ficción
Calificación: No recomendada para menores de 12 años
Reparto: Chris Evans, Samuel L. Jackson, Sebastian Stan, Anthony Mackie, Frank Grillo, Scarlett Johansson, Cobie Smulders, Toby Jones, Emily VanCamp, Hayley Atwell
Web: www.marvel.com/captainamerica
Distribuidora: Walt Disney Studios Motion Pictures
Productora: Marvel Studios, Marvel Entertainment, LLC

General
Format                                   : AVI
Format/Info                              : Audio Video Interleave
File size                                : 940 MiB
Duration                                 : 1h 57mn
Overall bit rate                         : 1 118 Kbps
Writing application                      : Lavf52.84.0

Video
ID                                       : 0
Format                                   : MPEG-4 Visual
Codec ID                                 : FMP4
Duration                                 : 1h 57mn
Bit rate                                 : 976 Kbps
Width                                    : 640 pixels
Height                                   : 272 pixels
Display aspect ratio                     : 2.35:1
Frame rate                               : 29.970 fps
Color space                              : YUV
Chroma subsampling                       : 4:2:0
Compression mode                         : Lossy
Bits/(Pixel*Frame)                       : 0.187
Stream size                              : 820 MiB (87%)

Audio
ID                                       : 1
Format                                   : MPEG Audio
Format version                           : Version 1
Format profile                           : Layer 3
Mode                                     : Joint stereo
Mode extension                           : MS Stereo
Codec ID                                 : 55
Codec ID/Hint                            : MP3
Duration                                 : 1h 57mn
Bit rate mode                            : Constant
Bit rate                                 : 128 Kbps
Channel(s)                               : 2 channels
Sampling rate                            : 48.0 KHz
Compression mode                         : Lossy
Stream size                              : 108 MiB (11%)
Alignment                                : Aligned on interleaves
Interleave, duration                     : 24 ms (0.72 video frame)
Interleave, preload duration             : 24 ms








http://www61.zippyshare.com/v/34849257/file.html
http://www36.zippyshare.com/v/47987717/file.html
http://www75.zippyshare.com/v/54453297/file.html
http://www68.zippyshare.com/v/24796914/file.html
http://www47.zippyshare.com/v/27432402/file.html
Capitan America 2 [CAM][VOSE][2014]
0 Puntos Score: 0/10
Visitas: 3936 Favoritos: 2
8 Comentarios Capitan America 2 [CAM][VOSE][2014]
gracias bajando   en  que idioma  esta
 
por favor el exceso de may?
esta completa la pelicula bro ....
Cita liperadi: Mostrar
VOSE = Version Original Subtitulada Espa?
te ekivocas la version completa dura algo mas de 2 horas sin contar la escena de los creditos claro
no es la version completa
Gracias mi pana, buen aporte
Para dejar un comentario Registrate! o.. eres ya usuario? Accede!