Capitan America 2 [CAM][Latino][2014]




Secuela de 'Capitán América: El primer vengador'. La acción tiene lugar en Washington DC en el presente. En esta ocasión, Steve Rogers (Chris Evans) unirá sus fuerzas a Natasha Romanoff, alias la Viuda Negra (Scarlett Johansson), para librar una batalla asombrosa contra un enemigo muy duro y difícil de domesticar. Éste no es otro que un soviético que recibe el apodo de Soldado de Invierno. El futuro de la humanidad depende de la victoria del Capitán América. Pero ni siquiera los superhéroes son invencibles.



Título: Capitán América: el Soldado de Invierno
Título original: Captain America: The Winter Soldier
Dirección: Joe Russo, Anthony Russo
País: Estados Unidos
Año: 2014
Fecha de estreno: 28/03/2014
Duración: 136 min
Género: Aventuras, Acción, Ciencia ficción
Calificación: No recomendada para menores de 12 años
Reparto: Chris Evans, Samuel L. Jackson, Sebastian Stan, Anthony Mackie, Frank Grillo, Scarlett Johansson, Cobie Smulders, Toby Jones, Emily VanCamp, Hayley Atwell
Web: www.marvel.com/captainamerica
Distribuidora: Walt Disney Studios Motion Pictures
Productora: Marvel Studios, Marvel Entertainment, LLC

General
Format                                   : AVI
Format/Info                              : Audio Video Interleave
File size                                : 940 MiB
Duration                                 : 1h 57mn
Overall bit rate                         : 1 118 Kbps
Writing application                      : Lavf52.84.0

Video
ID                                       : 0
Format                                   : MPEG-4 Visual
Codec ID                                 : FMP4
Duration                                 : 1h 57mn
Bit rate                                 : 976 Kbps
Width                                    : 640 pixels
Height                                   : 272 pixels
Display aspect ratio                     : 2.35:1
Frame rate                               : 29.970 fps
Color space                              : YUV
Chroma subsampling                       : 4:2:0
Compression mode                         : Lossy
Bits/(Pixel*Frame)                       : 0.187
Stream size                              : 820 MiB (87%)

Audio
ID                                       : 1
Format                                   : MPEG Audio
Format version                           : Version 1
Format profile                           : Layer 3
Mode                                     : Joint stereo
Mode extension                           : MS Stereo
Codec ID                                 : 55
Codec ID/Hint                            : MP3
Duration                                 : 1h 57mn
Bit rate mode                            : Constant
Bit rate                                 : 128 Kbps
Channel(s)                               : 2 channels
Sampling rate                            : 48.0 KHz
Compression mode                         : Lossy
Stream size                              : 108 MiB (11%)
Alignment                                : Aligned on interleaves
Interleave, duration                     : 24 ms (0.72 video frame)
Interleave, preload duration             : 24 ms






http://www34.zippyshare.com/v/18506343/file.html
http://www13.zippyshare.com/v/50431505/file.html
http://www48.zippyshare.com/v/7049325/file.html
http://www16.zippyshare.com/v/22522124/file.html
http://www65.zippyshare.com/v/91526440/file.html
Capitan America 2 [CAM][Latino][2014]
0 Puntos Score: 0/10
Visitas: 6232 Favoritos: 4
5 Comentarios Capitan America 2 [CAM][Latino][2014]
Es grabada de cine?
esta completa o cortada en el final como todas????
tiene final????
Cita ichigo023: Mostrar
igual que todas hasta el momento cortadas al final... tendran que esperar mejor calidad a ver si se resuelve ese problema...
Les cuento el final???...

el sabado fui a verla a 4DX y la pelicula sin ser espectacular es bastante buena... ademas despues de terminar viene un adelanto y cuando terminan todos los creditos, viene un peque?
Para dejar un comentario Registrate! o.. eres ya usuario? Accede!