A Primera Vista avilatino Val kilmer Mira sorvino

A Primera Vista  Dvdrip latino Val kilmer Mira sorvino


Amy trabaja en Nueva York como arquitecta, y como todos los habitantes de esa ciudad, está permanentemente estresada, por lo que decide dejar todos los proyectos en los que está trabajando e irse de vacaciones.
Así termina en un hotel en donde se someterá a varios tratamientos para relajarse, como un spa y masajes. El masajista se llama Virgil, y cuenta con la peculiaridad de que es ciego. Eso no es un problema para él, ya que sus paisanos lo consideran el mejor masajista de la zona, algo que pasa con las personas invidentes.
Ambos acabaran enamorándose, de forma que Amy hace todo lo posible para que él vea, de modo que se opera y consigue recuperar la visión. Lo que ocurre es que no está preparado para ver, y de repente se tiene que enfrentar a un montón de estímulos para los que no estaba preparado, por lo que la felicidad se convierte en preocupación.


Titulo Original: At First Sight
Titulo Hispano: A Primera Vista
Idioma: Español Latino
País: USA
Año: 1999
Género: Drama. Romantica | Basado en hechos reales
Tamaño: 1,58 GB
Imagen: DVDRip
Formato: .avi 
Servidor Firedrive


Capturas




A PRIMERA VISTA.avi
Format                         : AVI
Format/Info                    : Audio Video Interleave
File size                      : 1.58 GiB
Duration                       : 2h 8mn
Overall bit rate               : 1 760 Kbps
Writing application            : VirtualDubMod 1.5.4.1 (build 2178/release)
Writing library                : VirtualDubMod build 2178/release

Video
ID                             : 0
Format                         : MPEG-4 Visual
Format profile                 : Advanced [email protected]
Format settings, BVOP          : No
Format settings, QPel          : No
Format settings, GMC           : No warppoints
Format settings, Matrix        : Custom
Codec ID                       : XVID
Codec ID/Hint                  : XviD
Duration                       : 2h 8mn
Bit rate                       : 1 623 Kbps
Width                          : 720 pixels
Height                         : 416 pixels
Display aspect ratio           : 1.731
Frame rate                     : 23.976 fps
Color space                    : YUV
Chroma subsampling             : 4:2:0
Bit depth                      : 8 bits
Scan type                      : Progressive
Compression mode               : Lossy
Bits/(Pixel*Frame)             : 0.226
Stream size                    : 1.46 GiB (92%)
Writing library                : XviD 64

Audio
ID                             : 1
Format                         : MPEG Audio
Format version                 : Version 1
Format profile                 : Layer 3
Codec ID                       : 55
Codec ID/Hint                  : MP3
Duration                       : 2h 8mn
Bit rate mode                  : Constant
Bit rate                       : 128 Kbps
Channel(s)                     : 2 channels
Sampling rate                  : 44.1 KHz
Compression mode               : Lossy
Stream size                    : 118 MiB (7%)
Alignment                      : Split accross interleaves
Interleave, duration           : 42 ms (1.00 video frame)
Interleave, preload duration   : 500 ms
Writing library                : LAME3.99r
Encoding settings              : -m s -V 4 -q 2 -lowpass 17 -b 128



A Primera Vista avilatino Val kilmer Mira sorvino
15 Puntos Score: 7.5/10
Visitas: 1902 Favoritos: 1
Ver los usuarios que votaron...
11 Comentarios A Primera Vista avilatino Val kilmer Mira sorvino
hey amigoooooo GRACIAS me la llevo las uscaba hace ya bastante tiempo en espa?
Amigo no podras subirla a Mega  
@jezuzkater @Lic_Charly de nada amigos gracias por pasar
@rickrock amigo mega me anda muy mal batallo mucho para subir se corta a cada rato, y en filedrive se suben muy rapido
Se agradece  
Gracias excelente Aporte... Gran Trabajo...
Muchas gracias por el aporte... me la llevo.
gracias me la han recomendado
amigo la anduve buscando pero ahora q la encuentro los links ya no sirven
la podrias subir a mega o shared por favor
saludos
amigo buenas me ayudas los link est?
Para dejar un comentario Registrate! o.. eres ya usuario? Accede!