Jimmy P [HDRip][VOSE][2013]




Jimmy Picard (Benicio del Toro) es un veterano del ejército de los Estados Unidos que padece graves secuelas psicológicas por culpa de los horrores vistos en la guerra. Pronto empieza a congeniar su psicoanalista, el francés Georges Devereux (Mathieu Almaric), quien parece entender sus problemas a la perfección. Sin embargo, llega un momento en el que Jimmy se pregunta si realmente le está ayudando, porque el laberinto en el que se encuentra metido no parecer tener una salida clara. Georges le hará ver la luz al final del túnel, pero le costará esfuerzo y mucha paciencia.



Título: Jimmy P.
Título original: Jimmy P. (Psychothérapie d’un Indien des Plaines)
Dirección: Arnaud Desplechin
País: Francia
Año: 2013
Fecha de estreno: 21/03/2014
Duración: 120 min
Género: Drama
Calificación: No recomendada para menores de 7 años
Reparto: Benicio del Toro, Mathieu Amalric, Elya Baskin, A Martinez, Misty Upham, Linda Boston, Michelle Thrush
Distribuidora: Vertigo Films
Productora: Canal+, France 2 Cinéma, Why Not Productions, Le Pacte, France Télévision, Worldview Entertainment, Ciné+, Hérodiade, Orange Studios

General
Format                                   : AVI
Format/Info                              : Audio Video Interleave
File size                                : 1 007 MiB
Duration                                 : 1h 56mn
Overall bit rate                         : 1 204 Kbps
Writing application                      : Lavf53.32.100
Original source form/Name                : Jimmy.P.2013.DVDR.Sub

Video
ID                                       : 0
Format                                   : AVC
Format/Info                              : Advanced Video Codec
Format profile                           : [email protected]
Format settings, CABAC                   : Yes
Format settings, ReFrames                : 2 frames
Codec ID                                 : H264
Duration                                 : 1h 56mn
Bit rate                                 : 970 Kbps
Width                                    : 720 pixels
Height                                   : 374 pixels
Display aspect ratio                     : 1.925
Frame rate                               : 23.976 fps
Color space                              : YUV
Chroma subsampling                       : 4:2:0
Bit depth                                : 8 bits
Scan type                                : Progressive
Bits/(Pixel*Frame)                       : 0.150
Stream size                              : 811 MiB (81%)
Writing library                          : x264 core
Color primaries                          : BT.601-6 525, BT.1358 525, BT.1700 NTSC, SMPTE 170M
Transfer characteristics                 : BT.709-5, BT.1361
Matrix coefficients                      : BT.601-6 525, BT.1358 525, BT.1700 NTSC, SMPTE 170M

Audio
ID                                       : 1
Format                                   : AC-3
Format/Info                              : Audio Coding 3
Mode extension                           : CM (complete main)
Format settings, Endianness              : Big
Codec ID                                 : 2000
Duration                                 : 1h 56mn
Bit rate mode                            : Constant
Bit rate                                 : 224 Kbps
Channel(s)                               : 2 channels
Channel positions                        : Front: L R
Sampling rate                            : 48.0 KHz
Bit depth                                : 16 bits
Compression mode                         : Lossy
Stream size                              : 187 MiB (19%)
Alignment                                : Aligned on interleaves
Interleave, duration                     : 32 ms (0.77 video frame)






http://www1.zippyshare.com/v/54184173/file.html
http://www67.zippyshare.com/v/21135949/file.html
http://www65.zippyshare.com/v/8559329/file.html
http://www68.zippyshare.com/v/19556158/file.html
http://www13.zippyshare.com/v/54242343/file.html
http://www3.zippyshare.com/v/2218036/file.html
Jimmy P [HDRip][VOSE][2013]
10 Puntos Score: 10/10
Visitas: 1162 Favoritos: 2
Ver los usuarios que votaron...
0 Comentarios Jimmy P [HDRip][VOSE][2013]
Este post no tiene comentarios. Sea el primero!
Para dejar un comentario Registrate! o.. eres ya usuario? Accede!