Jimmy P [HDRip][Castellano][2013]




Jimmy Picard (Benicio del Toro) es un veterano del ejército de los Estados Unidos que padece graves secuelas psicológicas por culpa de los horrores vistos en la guerra. Pronto empieza a congeniar su psicoanalista, el francés Georges Devereux (Mathieu Almaric), quien parece entender sus problemas a la perfección. Sin embargo, llega un momento en el que Jimmy se pregunta si realmente le está ayudando, porque el laberinto en el que se encuentra metido no parecer tener una salida clara. Georges le hará ver la luz al final del túnel, pero le costará esfuerzo y mucha paciencia.



Título: Jimmy P.
Título original: Jimmy P. (Psychothérapie d’un Indien des Plaines)
Dirección: Arnaud Desplechin
País: Francia
Año: 2013
Fecha de estreno: 21/03/2014
Duración: 120 min
Género: Drama
Calificación: No recomendada para menores de 7 años
Reparto: Benicio del Toro, Mathieu Amalric, Elya Baskin, A Martinez, Misty Upham, Linda Boston, Michelle Thrush
Distribuidora: Vertigo Films
Productora: Canal+, France 2 Cinéma, Why Not Productions, Le Pacte, France Télévision, Worldview Entertainment, Ciné+, Hérodiade, Orange Studios

General
Format                                   : MPEG-4
Format profile                           : Base Media
Codec ID                                 : isom
File size                                : 693 MiB
Duration                                 : 1h 56mn
Overall bit rate mode                    : Variable
Overall bit rate                         : 828 Kbps
Writing application                      : Lavf54.63.104

Video
ID                                       : 1
Format                                   : AVC
Format/Info                              : Advanced Video Codec
Format profile                           : [email protected]
Format settings, CABAC                   : Yes
Format settings, ReFrames                : 4 frames
Codec ID                                 : avc1
Codec ID/Info                            : Advanced Video Coding
Duration                                 : 1h 56mn
Bit rate                                 : 750 Kbps
Width                                    : 720 pixels
Height                                   : 304 pixels
Display aspect ratio                     : 2.35:1
Frame rate mode                          : Variable
Frame rate                               : 23.976 fps
Minimum frame rate                       : 11.988 fps
Maximum frame rate                       : 23.976 fps
Color space                              : YUV
Chroma subsampling                       : 4:2:0
Bit depth                                : 8 bits
Scan type                                : Progressive
Bits/(Pixel*Frame)                       : 0.143
Stream size                              : 628 MiB (91%)
Writing library                          : x264 core 120 r2151 a3f4407
Encoding settings                        : cabac=1 / ref=3 / deblock=1:0:0 / analyse=0x3:0x113 / me=hex / subme=7 / psy=1 / psy_rd=1.00:0.00 / mixed_ref=1 / me_range=16 / chroma_me=1 / trellis=1 / 8x8dct=1 / cqm=0 / deadzone=21,11 / fast_pskip=1 / chroma_qp_offset=-2 / threads=16 / sliced_threads=0 / nr=0 / decimate=1 / interlaced=0 / bluray_compat=0 / constrained_intra=0 / bframes=3 / b_pyramid=2 / b_adapt=1 / b_bias=0 / direct=1 / weightb=1 / open_gop=0 / weightp=2 / keyint=25 / keyint_min=2 / scenecut=40 / intra_refresh=0 / rc_lookahead=25 / rc=abr / mbtree=1 / bitrate=750 / ratetol=1.0 / qcomp=0.60 / qpmin=0 / qpmax=69 / qpstep=4 / ip_ratio=1.40 / aq=1:1.00

Audio
ID                                       : 2
Format                                   : AAC
Format/Info                              : Advanced Audio Codec
Format profile                           : LC
Codec ID                                 : 40
Duration                                 : 1h 56mn
Duration_LastFrame                       : -32ms
Bit rate mode                            : Variable
Bit rate                                 : 72.0 Kbps
Maximum bit rate                         : 128 Kbps
Channel(s)                               : 2 channels
Channel positions                        : Front: L R
Sampling rate                            : 24.0 KHz
Compression mode                         : Lossy
Stream size                              : 61.2 MiB (9%)






http://www30.zippyshare.com/v/21598090/file.html
http://www15.zippyshare.com/v/64301634/file.html
http://www44.zippyshare.com/v/65784822/file.html
http://www43.zippyshare.com/v/31205430/file.html
Jimmy P [HDRip][Castellano][2013]
0 Puntos Score: 0/10
Visitas: 738 Favoritos: 0
0 Comentarios Jimmy P [HDRip][Castellano][2013]
Este post no tiene comentarios. Sea el primero!
Para dejar un comentario Registrate! o.. eres ya usuario? Accede!