Campanilla Hadas y Piratas [HD 720p][Latino][2014]




Esta es una aventura de espadachines sobre Zarina (voz de Christina Hendricks), una ambiciosa e inteligente hada guardiana del polvo de hada que está fascinada con el polvo mágico Blue Pixie y sus infinitas posibilidades. Zarina se mete en muchos líos por culpa de sus descabelladas ideas. Se escapa volando de la Hondonada de las Hadas para unirse a los Piratas de Skull, que la convierten en la capitana de su barco.
Tinker Bell (voz de Mae Whitman) y sus amigas deberán embarcarse en una aventura épica para encontrar a Zarina, y juntas lucharán con la espada contra la banda de piratas encabezada por un grumete llamado James (voz de Tom Hiddleston), que pronto será conocido con el nombre de... ¡Capitán Garfio!



Título: Campanilla: Hadas y piratas
Título original: The Pirate Fairy
Dirección: Peggy Holmes
País: Estados Unidos
Año: 2014
Fecha de estreno: 27/06/2014
Duración: 78 min
Género: Animación, Fantástico
Calificación: Apta para todos los públicos
Reparto: Mae Whitman, Tom Hiddleston, Ron Yuan, Christina Hendricks, Pamela Adlon, Angela Bartys, Jeff Bennett, Jim Cummings, Grey DeLisle, Lucy Hale
Web: www.fairies.disney.com
Distribuidora: Walt Disney Studios Motion Pictures
Productora: DisneyToon Studios

General
Format                                   : Matroska
Format version                           : Version 4 / Version 2
File size                                : 851 MiB
Duration                                 : 1h 18mn
Overall bit rate                         : 1 523 Kbps
Movie name                               : YASKE.TO
Encoded date                             : UTC 2014-03-21 16:09:16
Writing application                      : mkvmerge v6.8.0 ('Theme for Great Cities') 64bit built on Mar  2 2014 21:34:26
Writing library                          : libebml v1.3.0 + libmatroska v1.4.1

Video
ID                                       : 1
Format                                   : AVC
Format/Info                              : Advanced Video Codec
Format profile                           : [email protected]
Format settings, CABAC                   : Yes
Format settings, ReFrames                : 4 frames
Codec ID                                 : V_MPEG4/ISO/AVC
Duration                                 : 1h 18mn
Bit rate                                 : 1 138 Kbps
Width                                    : 1 280 pixels
Height                                   : 720 pixels
Display aspect ratio                     : 16:9
Frame rate                               : 23.976 fps
Color space                              : YUV
Chroma subsampling                       : 4:2:0
Bit depth                                : 8 bits
Scan type                                : Progressive
Bits/(Pixel*Frame)                       : 0.052
Stream size                              : 619 MiB (73%)
Writing library                          : x264 core 135 r2 f0c1c53
Encoding settings                        : cabac=1 / ref=4 / deblock=1:-1:-1 / analyse=0x3:0x133 / me=umh / subme=9 / psy=1 / psy_rd=1.00:0.15 / mixed_ref=1 / me_range=24 / chroma_me=1 / trellis=2 / 8x8dct=1 / cqm=0 / deadzone=21,11 / fast_pskip=0 / chroma_qp_offset=-3 / threads=36 / lookahead_threads=3 / sliced_threads=0 / nr=0 / decimate=1 / interlaced=0 / bluray_compat=0 / constrained_intra=0 / bframes=3 / b_pyramid=2 / b_adapt=2 / b_bias=0 / direct=3 / weightb=1 / open_gop=0 / weightp=2 / keyint=250 / keyint_min=23 / scenecut=40 / intra_refresh=0 / rc_lookahead=60 / rc=2pass / mbtree=1 / bitrate=1138 / ratetol=1.0 / qcomp=0.60 / qpmin=0 / qpmax=69 / qpstep=4 / cplxblur=20.0 / qblur=0.5 / vbv_maxrate=31250 / vbv_bufsize=31250 / nal_hrd=none / ip_ratio=1.40 / aq=1:1.00
Default                                  : Yes
Forced                                   : No
Color primaries                          : BT.709-5, BT.1361, IEC 61966-2-4, SMPTE RP177
Matrix coefficients                      : BT.709-5, BT.1361, IEC 61966-2-4 709, SMPTE RP177

Audio
ID                                       : 2
Format                                   : AC-3
Format/Info                              : Audio Coding 3
Mode extension                           : CM (complete main)
Format settings, Endianness              : Big
Codec ID                                 : A_AC3
Duration                                 : 1h 18mn
Bit rate mode                            : Constant
Bit rate                                 : 384 Kbps
Channel(s)                               : 2 channels
Channel positions                        : Front: L R
Sampling rate                            : 48.0 KHz
Bit depth                                : 16 bits
Compression mode                         : Lossy
Stream size                              : 214 MiB (25%)
Title                                    : LATINO
Language                                 : Spanish
Default                                  : Yes
Forced                                   : Yes






http://www16.zippyshare.com/v/34223917/file.html
http://www75.zippyshare.com/v/74877608/file.html
http://www15.zippyshare.com/v/23931534/file.html
http://www55.zippyshare.com/v/7815412/file.html
http://www10.zippyshare.com/v/89588370/file.html
Campanilla Hadas y Piratas [HD 720p][Latino][2014]
0 Puntos Score: 0/10
Visitas: 2651 Favoritos: 1
7 Comentarios Campanilla Hadas y Piratas [HD 720p][Latino][2014]
Mis peques y yo te lo agradecemos!! Saludos desde M?
a mi nieta le va a encantar, es fan de tink, gracias y saludos de Hidaldo, M?
Muchas gracias por el aporte!!!  
gracias por el post bajando saludos desde Caracas
adescargar espero que al desconprimir no me marque error me voy a arriesgar adescargar ya
Bajando, gracias....
Para dejar un comentario Registrate! o.. eres ya usuario? Accede!