Campanilla Hadas y Piratas [HDrip][Latino][2014]




Esta es una aventura de espadachines sobre Zarina (voz de Christina Hendricks), una ambiciosa e inteligente hada guardiana del polvo de hada que está fascinada con el polvo mágico Blue Pixie y sus infinitas posibilidades. Zarina se mete en muchos líos por culpa de sus descabelladas ideas. Se escapa volando de la Hondonada de las Hadas para unirse a los Piratas de Skull, que la convierten en la capitana de su barco.
Tinker Bell (voz de Mae Whitman) y sus amigas deberán embarcarse en una aventura épica para encontrar a Zarina, y juntas lucharán con la espada contra la banda de piratas encabezada por un grumete llamado James (voz de Tom Hiddleston), que pronto será conocido con el nombre de... ¡Capitán Garfio!



Título: Campanilla: Hadas y piratas
Título original: The Pirate Fairy
Dirección: Peggy Holmes
País: Estados Unidos
Año: 2014
Fecha de estreno: 27/06/2014
Duración: 78 min
Género: Animación, Fantástico
Calificación: Apta para todos los públicos
Reparto: Mae Whitman, Tom Hiddleston, Ron Yuan, Christina Hendricks, Pamela Adlon, Angela Bartys, Jeff Bennett, Jim Cummings, Grey DeLisle, Lucy Hale
Web: www.fairies.disney.com
Distribuidora: Walt Disney Studios Motion Pictures
Productora: DisneyToon Studios

General
Format                                   : MPEG-4
Format profile                           : Base Media
Codec ID                                 : isom
File size                                : 467 MiB
Duration                                 : 1h 18mn
Overall bit rate mode                    : Variable
Overall bit rate                         : 836 Kbps
Movie name                               : YASKE.TO
Writing application                      : Lavf54.63.104

Video
ID                                       : 1
Format                                   : AVC
Format/Info                              : Advanced Video Codec
Format profile                           : [email protected]
Format settings, CABAC                   : Yes
Format settings, ReFrames                : 4 frames
Codec ID                                 : avc1
Codec ID/Info                            : Advanced Video Coding
Duration                                 : 1h 18mn
Bit rate                                 : 750 Kbps
Width                                    : 720 pixels
Height                                   : 400 pixels
Display aspect ratio                     : 16:9
Frame rate mode                          : Constant
Frame rate                               : 23.976 fps
Color space                              : YUV
Chroma subsampling                       : 4:2:0
Bit depth                                : 8 bits
Scan type                                : Progressive
Bits/(Pixel*Frame)                       : 0.109
Stream size                              : 418 MiB (90%)
Writing library                          : x264 core 120 r2151 a3f4407
Encoding settings                        : cabac=1 / ref=3 / deblock=1:0:0 / analyse=0x3:0x113 / me=hex / subme=7 / psy=1 / psy_rd=1.00:0.00 / mixed_ref=1 / me_range=16 / chroma_me=1 / trellis=1 / 8x8dct=1 / cqm=0 / deadzone=21,11 / fast_pskip=1 / chroma_qp_offset=-2 / threads=16 / sliced_threads=0 / nr=0 / decimate=1 / interlaced=0 / bluray_compat=0 / constrained_intra=0 / bframes=3 / b_pyramid=2 / b_adapt=1 / b_bias=0 / direct=1 / weightb=1 / open_gop=0 / weightp=2 / keyint=25 / keyint_min=2 / scenecut=40 / intra_refresh=0 / rc_lookahead=25 / rc=abr / mbtree=1 / bitrate=750 / ratetol=1.0 / qcomp=0.60 / qpmin=0 / qpmax=69 / qpstep=4 / ip_ratio=1.40 / aq=1:1.00

Audio
ID                                       : 2
Format                                   : AAC
Format/Info                              : Advanced Audio Codec
Format profile                           : LC
Codec ID                                 : 40
Duration                                 : 1h 18mn
Duration_LastFrame                       : -32ms
Bit rate mode                            : Variable
Bit rate                                 : 82.6 Kbps
Maximum bit rate                         : 128 Kbps
Channel(s)                               : 2 channels
Channel positions                        : Front: L R
Sampling rate                            : 24.0 KHz
Compression mode                         : Lossy
Stream size                              : 46.2 MiB (10%)
Language                                 : Spanish






http://www68.zippyshare.com/v/9432772/file.html
http://www34.zippyshare.com/v/33071196/file.html
http://www13.zippyshare.com/v/65244568/file.html
Campanilla Hadas y Piratas [HDrip][Latino][2014]
10 Puntos Score: 5/10
Visitas: 1610 Favoritos: 1
Ver los usuarios que votaron...
4 Comentarios Campanilla Hadas y Piratas [HDrip][Latino][2014]
hiciste el post 2 veces
Cita ReGrayson: Mostrar
pues no, una es hd 320 y el otro es hd 720, en las especificaciones de audio y video se encuentran las diferencias
gracias +5 departe de mi hija !!!!!!!!!
 
Para dejar un comentario Registrate! o.. eres ya usuario? Accede!