Campanilla Hadas y Piratas [HD 720p][VOSE][2014]




Esta es una aventura de espadachines sobre Zarina (voz de Christina Hendricks), una ambiciosa e inteligente hada guardiana del polvo de hada que está fascinada con el polvo mágico Blue Pixie y sus infinitas posibilidades. Zarina se mete en muchos líos por culpa de sus descabelladas ideas. Se escapa volando de la Hondonada de las Hadas para unirse a los Piratas de Skull, que la convierten en la capitana de su barco.
Tinker Bell (voz de Mae Whitman) y sus amigas deberán embarcarse en una aventura épica para encontrar a Zarina, y juntas lucharán con la espada contra la banda de piratas encabezada por un grumete llamado James (voz de Tom Hiddleston), que pronto será conocido con el nombre de... ¡Capitán Garfio!



Título: Campanilla: Hadas y piratas
Título original: The Pirate Fairy
Dirección: Peggy Holmes
País: Estados Unidos
Año: 2014
Fecha de estreno: 27/06/2014
Duración: 78 min
Género: Animación, Fantástico
Calificación: Apta para todos los públicos
Reparto: Mae Whitman, Tom Hiddleston, Ron Yuan, Christina Hendricks, Pamela Adlon, Angela Bartys, Jeff Bennett, Jim Cummings, Grey DeLisle, Lucy Hale
Web: www.fairies.disney.com
Distribuidora: Walt Disney Studios Motion Pictures
Productora: DisneyToon Studios

General
Format                                   : AVI
Format/Info                              : Audio Video Interleave
Format profile                           : OpenDML
File size                                : 1.86 GiB
Duration                                 : 1h 18mn
Overall bit rate                         : 3 414 Kbps
Writing application                      : Lavf52.84.0

Video
ID                                       : 0
Format                                   : MPEG-4 Visual
Format profile                           : [email protected]
Format settings, BVOP                    : No
Format settings, QPel                    : No
Format settings, GMC                     : No warppoints
Format settings, Matrix                  : Default (H.263)
Codec ID                                 : XVID
Codec ID/Hint                            : XviD
Duration                                 : 1h 18mn
Bit rate                                 : 3 273 Kbps
Width                                    : 1 280 pixels
Height                                   : 720 pixels
Display aspect ratio                     : 16:9
Frame rate                               : 23.976 fps
Color space                              : YUV
Chroma subsampling                       : 4:2:0
Bit depth                                : 8 bits
Scan type                                : Progressive
Compression mode                         : Lossy
Bits/(Pixel*Frame)                       : 0.148
Stream size                              : 1.78 GiB (96%)
Writing library                          : Lavc52.97.0

Audio
ID                                       : 1
Format                                   : MPEG Audio
Format version                           : Version 1
Format profile                           : Layer 3
Mode                                     : Joint stereo
Mode extension                           : MS Stereo
Codec ID                                 : 55
Codec ID/Hint                            : MP3
Duration                                 : 1h 18mn
Bit rate mode                            : Constant
Bit rate                                 : 128 Kbps
Channel(s)                               : 2 channels
Sampling rate                            : 48.0 KHz
Compression mode                         : Lossy
Stream size                              : 71.5 MiB (4%)
Alignment                                : Aligned on interleaves
Interleave, duration                     : 24 ms (0.58 video frame)
Writing library                          : LAME3.98.4






http://www33.zippyshare.com/v/90579432/file.html
http://www7.zippyshare.com/v/69473371/file.html
http://www28.zippyshare.com/v/71430208/file.html
http://www14.zippyshare.com/v/91968468/file.html
http://www38.zippyshare.com/v/10957585/file.html
http://www13.zippyshare.com/v/46108835/file.html
http://www77.zippyshare.com/v/37956109/file.html
http://www53.zippyshare.com/v/60629059/file.html
http://www12.zippyshare.com/v/17924939/file.html
http://www40.zippyshare.com/v/83903185/file.html
Campanilla Hadas y Piratas [HD 720p][VOSE][2014]
0 Puntos Score: 0/10
Visitas: 843 Favoritos: 0
0 Comentarios Campanilla Hadas y Piratas [HD 720p][VOSE][2014]
Este post no tiene comentarios. Sea el primero!
Para dejar un comentario Registrate! o.. eres ya usuario? Accede!