Byzantium [HDRip][Castellano][2013]




Dos mujeres misteriosas buscan refugio en un pequeño lugar de la costa. Clara (Gemma Arterton) conoce al solitario Noel (Daniel Mays), que le proporciona un techo bajo el que dormir en su modesto motel, llamado Byzantium. Por su parte, la joven estudiante Eleanor (Saoirse Ronan) se hace amiga de Frank (Caleb Landry Jones) y le revela un terrible secreto que hasta ahora había permanecido oculto en su corazón. Dicha revelación conllevará unas consecuencias inesperadas y dramáticas para todos los personajes implicados.



Título: Byzantium
Título original: Byzantium
Dirección: Neil Jordan
País: El Reino Unido, Estados Unidos, Irlanda
Año: 2013
Fecha de estreno: 21/03/2014
Duración: 118 min
Género: Drama, Terror, Fantástico
Calificación: No recomendada para menores de 12 años
Reparto: Saoirse Ronan, Gemma Arterton, Sam Riley, Caleb Landry Jones, Daniel Mays, Thure Lindhardt, Gabriela Marcinkova
Web: www.facebook.com/ByzantiumMovie
Distribuidora: A Contracorriente Films
Productora: Parallel Film Productions, Number 9 Films, Lipsync Productions, Irish Film Board, Demarest Films

General
Format                                   : MPEG-4
Format profile                           : Base Media
Codec ID                                 : isom
File size                                : 709 MiB
Duration                                 : 1h 58mn
Overall bit rate mode                    : Variable
Overall bit rate                         : 835 Kbps
Writing application                      : Lavf54.63.104

Video
ID                                       : 1
Format                                   : AVC
Format/Info                              : Advanced Video Codec
Format profile                           : [email protected]
Format settings, CABAC                   : Yes
Format settings, ReFrames                : 4 frames
Codec ID                                 : avc1
Codec ID/Info                            : Advanced Video Coding
Duration                                 : 1h 58mn
Bit rate                                 : 750 Kbps
Width                                    : 720 pixels
Height                                   : 304 pixels
Display aspect ratio                     : 2.35:1
Frame rate mode                          : Constant
Frame rate                               : 23.976 fps
Color space                              : YUV
Chroma subsampling                       : 4:2:0
Bit depth                                : 8 bits
Scan type                                : Progressive
Bits/(Pixel*Frame)                       : 0.143
Stream size                              : 635 MiB (90%)
Writing library                          : x264 core 120 r2151 a3f4407
Encoding settings                        : cabac=1 / ref=3 / deblock=1:0:0 / analyse=0x3:0x113 / me=hex / subme=7 / psy=1 / psy_rd=1.00:0.00 / mixed_ref=1 / me_range=16 / chroma_me=1 / trellis=1 / 8x8dct=1 / cqm=0 / deadzone=21,11 / fast_pskip=1 / chroma_qp_offset=-2 / threads=16 / sliced_threads=0 / nr=0 / decimate=1 / interlaced=0 / bluray_compat=0 / constrained_intra=0 / bframes=3 / b_pyramid=2 / b_adapt=1 / b_bias=0 / direct=1 / weightb=1 / open_gop=0 / weightp=2 / keyint=25 / keyint_min=2 / scenecut=40 / intra_refresh=0 / rc_lookahead=25 / rc=abr / mbtree=1 / bitrate=750 / ratetol=1.0 / qcomp=0.60 / qpmin=0 / qpmax=69 / qpstep=4 / ip_ratio=1.40 / aq=1:1.00

Audio
ID                                       : 2
Format                                   : AAC
Format/Info                              : Advanced Audio Codec
Format profile                           : LC
Codec ID                                 : 40
Duration                                 : 1h 58mn
Bit rate mode                            : Variable
Bit rate                                 : 82.7 Kbps
Maximum bit rate                         : 128 Kbps
Channel(s)                               : 2 channels
Channel positions                        : Front: L R
Sampling rate                            : 24.0 KHz
Compression mode                         : Lossy
Stream size                              : 69.9 MiB (10%)








http://www7.zippyshare.com/v/53759908/file.html
http://www33.zippyshare.com/v/37569899/file.html
http://www76.zippyshare.com/v/60322986/file.html
http://www54.zippyshare.com/v/48000923/file.html
Byzantium [HDRip][Castellano][2013]
0 Puntos Score: 0/10
Visitas: 1499 Favoritos: 0
0 Comentarios Byzantium [HDRip][Castellano][2013]
Este post no tiene comentarios. Sea el primero!
Para dejar un comentario Registrate! o.. eres ya usuario? Accede!