The Invoking [DVDRIP][VOSE][2013]




Una mujer llamada Samantha hereda una casa de una familia que nunca conoció. Sam y tres amigos hacen un viaje para inspeccionar la propiedad. Poco después de llegar a la vivienda, Sam comienza a experimentar viejos recuerdos que vienen de su subconsciente. Pronto se encuentra incapaz de diferenciar entre la realidad y las horribles visiones...



Título Original: The Invoking
Año : 2013
País : Estados Unidos.
Duración: 1H con 22 min. aprox.
Director :  Jeremy Berg
Género: Horror | Thriller
Reparto : Brandon Anthony, Carson Holden, D?Angelo Midili

General
Format                                   : AVI
Format/Info                              : Audio Video Interleave
File size                                : 581 MiB
Duration                                 : 1h 22mn
Overall bit rate                         : 986 Kbps
Writing application                      : MEncoder SVN-r33883(20110719-gcc4.5.2)
Writing library                          : MPlayer

Video
ID                                       : 0
Format                                   : MPEG-4 Visual
Format profile                           : Advanced [email protected]
Format settings, BVOP                    : 2
Format settings, QPel                    : No
Format settings, GMC                     : No warppoints
Format settings, Matrix                  : Default (H.263)
Codec ID                                 : XVID
Codec ID/Hint                            : XviD
Duration                                 : 1h 22mn
Bit rate                                 : 846 Kbps
Width                                    : 712 pixels
Height                                   : 400 pixels
Display aspect ratio                     : 16:9
Original display aspect ratio            : 16:9
Frame rate                               : 23.976 fps
Color space                              : YUV
Chroma subsampling                       : 4:2:0
Bit depth                                : 8 bits
Scan type                                : Progressive
Compression mode                         : Lossy
Bits/(Pixel*Frame)                       : 0.124
Stream size                              : 499 MiB (86%)
Writing library                          : XviD 1.2.1 (UTC 2008-12-04)

Audio
ID                                       : 1
Format                                   : MPEG Audio
Format version                           : Version 1
Format profile                           : Layer 3
Mode                                     : Joint stereo
Mode extension                           : MS Stereo
Codec ID                                 : 55
Codec ID/Hint                            : MP3
Duration                                 : 1h 22mn
Bit rate mode                            : Constant
Bit rate                                 : 128 Kbps
Channel(s)                               : 2 channels
Sampling rate                            : 44.1 KHz
Compression mode                         : Lossy
Delay relative to video                  : 42ms
Stream size                              : 75.4 MiB (13%)
Alignment                                : Aligned on interleaves
Interleave, duration                     : 26 ms (0.63 video frame)
Interleave, preload duration             : 522 ms
Writing library                          : LAME3.98.4








http://www78.zippyshare.com/v/20877903/file.html
http://www52.zippyshare.com/v/17461001/file.html
http://www37.zippyshare.com/v/22853274/file.html
The Invoking [DVDRIP][VOSE][2013]
10 Puntos Score: 10/10
Visitas: 1434 Favoritos: 3
Ver los usuarios que votaron...
2 Comentarios The Invoking [DVDRIP][VOSE][2013]
Vamos a ver que sale, descargando, Muchas Gracias !!!!  
muchas gracias!
Para dejar un comentario Registrate! o.. eres ya usuario? Accede!