Prisoners of the Sun [HD 720p][VOSE][2013]




El jóven arqueólogo Charvet, se dirije hacia las arenas de egipto junto con una expedición para investigar sobre dicho lugar. Alli lo que encontrarán sera un secreto más antiguo que las piramides, "Los Durmientes", se han despertado y la cuenta atras para el fin del mundo a comenzado.



Título original: Prisoners of the Sun
Año: 2013
Duración: 83 min.
País: Estados Unidos
Director: Roger Christian
Guión: Peter Atkins, Anthony Hickox
Fotografía: Ed Wild
Reparto: John Rhys-Davies, David Charvet, Carmen Chaplin, Emily Holmes, Nick Moran, Joss Ackland, Michael Higgs, Gulshan Grover, Shane Richie, Mohamed Akhzam, Edy Arellano, Cedric Proust, Ahmed Boulane, Katherine Heath, Isabella Orlowska
Productora: Coproducción EEUU-Alemania; Cinemakers / Miromar Entertainment
Género: Acción. Terror. Aventuras

General
Format                                   : AVI
Format/Info                              : Audio Video Interleave
Format profile                           : OpenDML
File size                                : 1.32 GiB
Duration                                 : 1h 24mn
Overall bit rate                         : 2 251 Kbps
Writing application                      : MEncoder SVN-r33883(20110719-gcc4.5.2)
Writing library                          : MPlayer

Video
ID                                       : 0
Format                                   : MPEG-4 Visual
Format profile                           : Advanced [email protected]
Format settings, BVOP                    : 3
Format settings, QPel                    : No
Format settings, GMC                     : No warppoints
Format settings, Matrix                  : Default (H.263)
Codec ID                                 : XVID
Codec ID/Hint                            : XviD
Duration                                 : 1h 24mn
Bit rate                                 : 2 108 Kbps
Width                                    : 1 280 pixels
Height                                   : 720 pixels
Display aspect ratio                     : 16:9
Frame rate                               : 25.000 fps
Color space                              : YUV
Chroma subsampling                       : 4:2:0
Bit depth                                : 8 bits
Scan type                                : Progressive
Compression mode                         : Lossy
Bits/(Pixel*Frame)                       : 0.092
Stream size                              : 1.24 GiB (94%)
Writing library                          : XviD 1.2.1 (UTC 2008-12-04)

Audio
ID                                       : 1
Format                                   : MPEG Audio
Format version                           : Version 1
Format profile                           : Layer 3
Mode                                     : Joint stereo
Mode extension                           : MS Stereo
Codec ID                                 : 55
Codec ID/Hint                            : MP3
Duration                                 : 1h 24mn
Bit rate mode                            : Constant
Bit rate                                 : 128 Kbps
Channel(s)                               : 2 channels
Sampling rate                            : 44.1 KHz
Compression mode                         : Lossy
Delay relative to video                  : 40ms
Stream size                              : 77.1 MiB (6%)
Alignment                                : Aligned on interleaves
Interleave, duration                     : 26 ms (0.65 video frame)
Interleave, preload duration             : 522 ms
Writing library                          : LAME3.98.4








http://www67.zippyshare.com/v/7960774/file.html
http://www71.zippyshare.com/v/60180730/file.html
http://www62.zippyshare.com/v/2321261/file.html
http://www28.zippyshare.com/v/84106268/file.html
http://www31.zippyshare.com/v/81998841/file.html
http://www2.zippyshare.com/v/8923730/file.html
http://www47.zippyshare.com/v/9217407/file.html
Prisoners of the Sun [HD 720p][VOSE][2013]
5 Puntos Score: 5/10
Visitas: 2035 Favoritos: 2
Ver los usuarios que votaron...
3 Comentarios Prisoners of the Sun [HD 720p][VOSE][2013]
La bajo porque me intriga...estara buena la peli? Saludos!
Me suenta interesante, bajando   Gracias
Para dejar un comentario Registrate! o.. eres ya usuario? Accede!