Huff temporada 2 audio latino Hank Azaria


Saludos aqui les dejo la segunda temporada de esta serie quizas algunos si la conozcan y otros no pero se las recomiendo, a pesar de haber sido cancelada siendo esta la ultima temporada


Género: Drama 

Sinopsis: 
Huff es un fantástico trabajo protagonizado por el amable psiquiatra Huffstodt (Hank Azaria), serie creada y escrita por Bob Lowry ?que también ejerce de productor ejecutivo de la serie junto a Scott Winant (ganador de dos premios Emmy. 

Huffstodt es un personaje muy apreciado por sus pacientes, un entusiasta de su trabajo, pero su vida profesional da un giro cuando en una sesión de terapia, un chico de quince años se suicida delante de el. El disparo no sólo acaba con la vida del paciente, sino que también hace saltar por los aires los esquemas personales y profesionales del doctor Huffstodt.
capturas todos los capitulos tienen las mismas caracteristicas en tamaño y formato



General
Complete name                            : E:huff avihuff t2huff t2 mp4S2 E201 Los mapas no hablan (parte 1) - doblada.mp4
Format                                   : MPEG-4
Format profile                           : Base Media
Codec ID                                 : isom
File size                                : 231 MiB
Duration                                 : 54mn 56s
Overall bit rate mode                    : Variable
Overall bit rate                         : 587 Kbps
Encoded date                             : UTC 2013-11-09 17:13:48
Tagged date                              : UTC 2013-11-09 17:13:48

Video
ID                                       : 1
Format                                   : AVC
Format/Info                              : Advanced Video Codec
Format profile                           : [email protected]
Format settings, CABAC                   : Yes
Format settings, ReFrames                : 5 frames
Codec ID                                 : avc1
Codec ID/Info                            : Advanced Video Coding
Duration                                 : 54mn 56s
Bit rate mode                            : Variable
Bit rate                                 : 474 Kbps
Maximum bit rate                         : 900 Kbps
Width                                    : 480 pixels
Height                                   : 360 pixels
Display aspect ratio                     : 4:3
Frame rate mode                          : Constant
Frame rate                               : 23.976 fps
Color space                              : YUV
Chroma subsampling                       : 4:2:0
Bit depth                                : 8 bits
Scan type                                : Progressive
Bits/(Pixel*Frame)                       : 0.114
Stream size                              : 186 MiB (81%)
Title                                    : ›.’|N‹
Encoded date                             : UTC 2013-11-09 17:13:48
Tagged date                              : UTC 2013-11-09 17:14:33

Audio
ID                                       : 2
Format                                   : AAC
Format/Info                              : Advanced Audio Codec
Format profile                           : LC
Codec ID                                 : 40
Duration                                 : 54mn 56s
Bit rate mode                            : Variable
Bit rate                                 : 109 Kbps
Maximum bit rate                         : 114 Kbps
Channel count                            : 2 channels
Channel positions                        : Front: L R
Sampling rate                            : 44.1 KHz
Compression mode                         : Lossy
Stream size                              : 42.8 MiB (19%)
Title                                    : ›.’|N‹
Encoded date                             : UTC 2013-11-09 17:14:27
Tagged date                              : UTC 2013-11-09 17:14:33

Capitulos 13 servidores mega y filedrive


Huff temporada 2 audio latino Hank Azaria
10 Puntos Score: 10/10
Visitas: 826 Favoritos: 3
Ver los usuarios que votaron...
5 Comentarios Huff temporada 2 audio latino Hank Azaria
Excelente  
gracias por compartir
Muy buen aporte - Gracias x compartir
@juanw200 muchas gracias por dead like me en latino la estoy descargando ahora . aca  https://www.youtube.com/watch?v=NFwErINq-6g  decias que tenias Pushing Daisies en latino grabada de la tv todabia la tenes ?? miestras que se deje ver y escuchar esta bien .. sos un genio conseguis series que nadie tiene , espero que sigas grabandolas en latino  
@maxik14 amigo Pushing Daisies solo tengo la temporada 1 pero esta grabada en un vhs lamentablemente no se ve muy bien por eso no la he pasado a mi pc, necesito probar con otra videocassetera a ver si se ve mejor  ya que la que tengo ya esta muy viejita
hola amigo "juanw200" disculpa pero necesito pedirte un tremendo favor, estaba buscando uno de tus pots del "duende maldito 3" y queria descargarmelo, pero los liink estan caidos y creo k tu eres la unica persona k lo tiene en audio latino porfavor podrias volver a subirlo me harias un gran favor amigo te lo imploro porfavor arregla los link del "duende maldito 3" http://www.identi.li/index.php?topic=241517. porfavor JUANW200
Para dejar un comentario Registrate! o.. eres ya usuario? Accede!