libardomm
"Ciencia es mucho más una forma de pensar que un cuerpo de conocimient"

Cosmos: A SpaceTime Odyssey T1-Capitulo 3[Ingles]

Cosmos: A SpaceTime Odyssey T1-Capitulo 3[Ingles]







Es una de las mejores series de los ultimos años. Es un imperativo que todas los ciudadanos debamos conocer al menos nociones básicas sobre ciencia.
Bienvenidos a Cosmos Capitulo 3.




Cosmos: A Space-Time Odyssey (en Latinoamérica: Cosmos: Una odisea de tiempo y espacio) es un serie documental para televisión. Es la continuación de la serie Cosmos: un viaje personal, presentada por Carl Sagan en 1980. Su presentador es Neil deGrasse Tyson. Los productores ejecutivos son Seth MacFarlane y Ann Druyan, la viuda de Sagan, ambos coguionistas del programa original.1 2 Se estrenó el 9 de marzo de 20143 simultanéamente en diez canales del Fox Networks Group: Fox, FX, FXX, FXM, Fox Sports 1, Fox Sports 2, Nat Geo, Nat Geo Mundo, Nat Geo Wild y Fox Life. Los 12 episodios restantes se transmiten por Fox y Nat Geo, que los repite al día siguiente con contenido adicional.4 De acuerdo a Fox Networks, esta fue la primera vez en que un programa debuta en una transmisión global y simultánea en sus canales.5 A través de los capítulos regionales de Nat Geo se transmite en 170 países y 45 idiomas, que en el caso de Latinoamérica se estrenó dos días después.6 El tema musical fue compuesto por Alan Silvestri.7
Cosmos: A SpaceTime Odyssey Season 1, Episode 3 ? When Knowledge Conquered Fear
Air date: Mar 23, 2014
Genre: Documentary, Animation, Adventure, Discovery, Science










Enlaces De Descarga
Cosmos: A SpaceTime Odyssey T1-Capitulo 3[Ingles]
40 Puntos Score: 8/10
Visitas: 1282 Favoritos: 2
Ver los usuarios que votaron...
13 Comentarios Cosmos: A SpaceTime Odyssey T1-Capitulo 3[Ingles]
General
Complete name                            : D:Mis DocumentosMiponyCosmos.A.Space.Time.Odyssey.S01E03.HDTV.x264-LOLCosmos.A.Space.Time.Odyssey.S01E03.HDTV.x264-LOL.mp4
Format                                   : MPEG-4
Format profile                           : Base Media
Codec ID                                 : isom
File size                                : 201 MiB
Duration                                 : 43mn 8s
Overall bit rate mode                    : Variable
Overall bit rate                         : 650 Kbps
Encoded date                             : UTC 2014-03-24 02:17:10
Tagged date                              : UTC 2014-03-24 02:17:10

Video
ID                                       : 1
Format                                   : AVC
Format/Info                              : Advanced Video Codec
Format profile                           : [email protected]
Format settings, CABAC                   : Yes
Format settings, ReFrames                : 5 frames
Codec ID                                 : avc1
Codec ID/Info                            : Advanced Video Coding
Duration                                 : 43mn 8s
Bit rate                                 : 521 Kbps
Maximum bit rate                         : 2 721 Kbps
Width                                    : 720 pixels
Height                                   : 404 pixels
Display aspect ratio                     : 16:9
Frame rate mode                          : Constant
Frame rate                               : 23.976 fps
Color space                              : YUV
Chroma subsampling                       : 4:2:0
Bit depth                                : 8 bits
Scan type                                : Progressive
Bits/(Pixel*Frame)                       : 0.075
Stream size                              : 161 MiB (80%)
Writing library                          : x264 core 142 r2409 d6b4e63
Encoding settings                        : cabac=1 / ref=5 / deblock=1:0:0 / analyse=0x3:0x113 / me=umh / subme=8 / psy=1 / psy_rd=1.00:0.00 / mixed_ref=1 / me_range=16 / chroma_me=1 / trellis=1 / 8x8dct=1 / cqm=0 / deadzone=21,11 / fast_pskip=1 / chroma_qp_offset=-2 / threads=18 / lookahead_threads=3 / sliced_threads=0 / nr=0 / decimate=1 / interlaced=0 / bluray_compat=0 / constrained_intra=0 / bframes=5 / b_pyramid=2 / b_adapt=2 / b_bias=0 / direct=3 / weightb=1 / open_gop=0 / weightp=2 / keyint=250 / keyint_min=23 / scenecut=40 / intra_refresh=0 / rc_lookahead=50 / rc=crf / mbtree=1 / crf=22.0 / qcomp=0.60 / qpmin=0 / qpmax=69 / qpstep=4 / ip_ratio=1.40 / aq=1:1.00
Encoded date                             : UTC 2014-03-24 02:17:10
Tagged date                              : UTC 2014-03-24 02:17:12
Matrix coefficients                      : BT.709

Audio
ID                                       : 2
Format                                   : AAC
Format/Info                              : Advanced Audio Codec
Format profile                           : LC
Codec ID                                 : 40
Duration                                 : 43mn 8s
Bit rate mode                            : Variable
Bit rate                                 : 125 Kbps
Maximum bit rate                         : 151 Kbps
Channel count                            : 2 channels
Channel positions                        : Front: L R
Sampling rate                            : 48.0 KHz
Compression mode                         : Lossy
Stream size                              : 38.7 MiB (19%)
Encoded date                             : UTC 2014-03-24 02:17:11
Tagged date                              : UTC 2014-03-24 02:17:12
O.K. Excelente aporte amigo. Me gusto mucho el primer capitulo. ?
Cita estebrian: Mostrar
una pregunta, en la parte inferior derecha aparece FOX, pero en los primeros dos que descargu?
Donde puedo encontrar subtitulos? Buen aporte
Cita Ackoxxx: Mostrar
http://www.subtitulos.es/cosmos%3A-a-spacetime-odyssey/1x03
excelente, gracias
Muchas gracias!
gracias por los subs
Por el momento me toca s?
Lo prometido es deuda... +10  
Para dejar un comentario Registrate! o.. eres ya usuario? Accede!