Mitty[BRSCR][Castellano][2013]




Remake de ‘La vida secreta de Walter Mitty’ (‘The Secret Life of Walter Mitty’), película estrenada en 1947 y que fue dirigida por Norman Z. McLeod. La historia se basaba en un relato de James Thurber que giraba en torno al tímido empleado de una editorial que consigue evadirse de su gris existencia imaginando que es el héroe de grandes aventuras; un día, su sueño se hace realidad cuando conoce a una misteriosa mujer que le implica en una peligrosa misión.



Título: La vida secreta de Walter Mitty
Título original: The Secret Life of Walter Mitty
Dirección: Ben Stiller
País: Estados Unidos
Año: 2013
Fecha de estreno: 25/12/2013
Duración: 114 min
Género: Drama, Comedia, Aventuras
Calificación: Apta para todos los públicos
Reparto: Ben Stiller, Kristen Wiig, Patton Oswalt, Shirley MacLaine, Adam Scott, Kathryn Hahn, Sean Penn, Terence Bernie Hines
Distribuidora: 20th Century Fox
Productora: Twentieth Century-Fox Film Corporation, Samuel Goldwyn Films, Red Hour Films, Truenorth Productions

General
Format                                   : AVI
Format/Info                              : Audio Video Interleave
File size                                : 753 MiB
Duration                                 : 1h 54mn
Overall bit rate                         : 917 Kbps
Writing application                      : VirtualDubMod 1.5.10.2 (build 2540/release)
Writing library                          : VirtualDubMod build 2540/release

Video
ID                                       : 0
Format                                   : MPEG-4 Visual
Format profile                           : Advanced [email protected]
Format settings, BVOP                    : 2
Format settings, QPel                    : No
Format settings, GMC                     : No warppoints
Format settings, Matrix                  : Custom
Codec ID                                 : XVID
Codec ID/Hint                            : XviD
Duration                                 : 1h 54mn
Bit rate                                 : 716 Kbps
Width                                    : 656 pixels
Height                                   : 272 pixels
Display aspect ratio                     : 2.40:1
Frame rate                               : 23.976 fps
Color space                              : YUV
Chroma subsampling                       : 4:2:0
Bit depth                                : 8 bits
Scan type                                : Progressive
Compression mode                         : Lossy
Bits/(Pixel*Frame)                       : 0.167
Stream size                              : 588 MiB (78%)
Writing library                          : XviD 1.2.1 (UTC 2008-12-04)

Audio
ID                                       : 1
Format                                   : MPEG Audio
Format version                           : Version 1
Format profile                           : Layer 3
Codec ID                                 : 55
Codec ID/Hint                            : MP3
Duration                                 : 1h 54mn
Bit rate mode                            : Constant
Bit rate                                 : 192 Kbps
Channel(s)                               : 2 channels
Sampling rate                            : 44.1 KHz
Compression mode                         : Lossy
Stream size                              : 157 MiB (21%)
Alignment                                : Split accross interleaves
Interleave, duration                     : 42 ms (1.00 video frame)
Interleave, preload duration             : 500 ms






http://www25.zippyshare.com/v/82819572/file.html
http://www16.zippyshare.com/v/90648255/file.html
http://www22.zippyshare.com/v/56050842/file.html
http://www66.zippyshare.com/v/1228533/file.html
Mitty[BRSCR][Castellano][2013]
0 Puntos Score: 0/10
Visitas: 827 Favoritos: 0
4 Comentarios Mitty[BRSCR][Castellano][2013]
No lo tendras en otros enlaces? como MEGA
Que tal el audio? es de cine?
Cita JCHacKeR: Mostrar
no solo trabajo con zippy "ya que no tiene limite de espacio" los demas no son aceptados por identi... y el audio no es de grabacion de cine... es algo con una calidad pasable y razonable
gracias amigo. Vamosa reirnos un rato
Para dejar un comentario Registrate! o.. eres ya usuario? Accede!