Kingdom of Conquerors[HD 720p][VOSE][2013]




En el año 1200, un hombre se levantó cuya crueldad era tan temido, emergió como el mayor constructor de imperios que ha conocido la humanidad. Inspirada en hechos históricos reales.



Título: Kingdom of Conquerors
Año: 2013
Pais: Japon
Genero: Accion
Directores: Ping Wang
Escritores: Ping Ran
Reparto: Le GengXiaoran LiMen TuPark YejinShaoqun YuYouliang Zhao

General
Format                                   : AVI
Format/Info                              : Audio Video Interleave
Format profile                           : OpenDML
File size                                : 1.30 GiB
Duration                                 : 1h 40mn
Overall bit rate                         : 1 864 Kbps
Writing application                      : Lavf52.84.0

Video
ID                                       : 0
Format                                   : MPEG-4 Visual
Codec ID                                 : FMP4
Duration                                 : 1h 40mn
Bit rate                                 : 1 720 Kbps
Width                                    : 1 280 pixels
Height                                   : 720 pixels
Display aspect ratio                     : 16:9
Frame rate                               : 29.970 fps
Color space                              : YUV
Chroma subsampling                       : 4:2:0
Compression mode                         : Lossy
Bits/(Pixel*Frame)                       : 0.062
Stream size                              : 1.20 GiB (92%)

Audio
ID                                       : 1
Format                                   : MPEG Audio
Format version                           : Version 1
Format profile                           : Layer 3
Mode                                     : Joint stereo
Codec ID                                 : 55
Codec ID/Hint                            : MP3
Duration                                 : 1h 40mn
Bit rate mode                            : Constant
Bit rate                                 : 128 Kbps
Channel(s)                               : 2 channels
Sampling rate                            : 48.0 KHz
Compression mode                         : Lossy
Stream size                              : 91.7 MiB (7%)
Alignment                                : Aligned on interleaves
Interleave, duration                     : 24 ms (0.72 video frame)
Writing library                          : LAME3.98.4






http://www45.zippyshare.com/v/25423401/file.html
http://www18.zippyshare.com/v/85190234/file.html
http://www55.zippyshare.com/v/81339978/file.html
http://www10.zippyshare.com/v/46168670/file.html
http://www78.zippyshare.com/v/17462482/file.html
http://www64.zippyshare.com/v/3407205/file.html
http://www29.zippyshare.com/v/1850170/file.html
Kingdom of Conquerors[HD 720p][VOSE][2013]
5 Puntos Score: 5/10
Visitas: 1829 Favoritos: 1
Ver los usuarios que votaron...
2 Comentarios Kingdom of Conquerors[HD 720p][VOSE][2013]
Amo las pelis de chinos de antes. Lastima el descargador.
Cita johnnyv76: Mostrar
disculpa sucede es que zippy es el unico que permite libre espacio en su sistema...
Para dejar un comentario Registrate! o.. eres ya usuario? Accede!