Emperador [HD 720p][VOSE][2012]




Película basada en los días posteriores al lanzamiento de la bomba atómica sobre las ciudades de Hiroshima y Nagasaki en 1945. Este terrible acontecimiento marcó la rendición del emperador Hirohito (Takataro Kataoka) y el fin de la Segunda Guerra Mundial. Después, el presidente Truman encargó al general MacArthur (Tommy Lee Jones) la tarea de restaurar el gobierno japonés con la convocatoria de elecciones democráticas. Pero, ¿qué debía hacer MacArthur con el emperador? Otro estadounidense le seguirá de cerca para vigilar que cumple con su misión. Se trata de Bonner Fellers (Matthew Fox), un apasionado de la cultura asiática.



Título: Emperador
Título original: Emperor
Dirección: Peter Webber
País: Estados Unidos, Japón
Año: 2012
Fecha de estreno: 07/03/2014
Duración: 105 min
Género: Drama, Histórico, Bélico
Reparto: Matthew Fox, Tommy Lee Jones, Eriko Hatsune, Kaori Momoi, Aaron Jackson, Colin Moy, William Wallace, Masatô Ibu
Web: EMPEROR The Movie | On Blu-ray?, DVD and Digital Download August 13
Distribuidora: A Contracorriente Films
Productora: Krasnoff Foster Productions

General
Format                                   : AVI
Format/Info                              : Audio Video Interleave
Format profile                           : OpenDML
File size                                : 1.86 GiB
Duration                                 : 1h 45mn
Overall bit rate                         : 2 528 Kbps
Writing application                      : Lavf52.84.0

Video
ID                                       : 0
Format                                   : MPEG-4 Visual
Format profile                           : [email protected]
Format settings, BVOP                    : No
Format settings, QPel                    : No
Format settings, GMC                     : No warppoints
Format settings, Matrix                  : Default (H.263)
Codec ID                                 : XVID
Codec ID/Hint                            : XviD
Duration                                 : 1h 45mn
Bit rate                                 : 2 387 Kbps
Width                                    : 1 280 pixels
Height                                   : 544 pixels
Display aspect ratio                     : 2.35:1
Frame rate                               : 23.976 fps
Color space                              : YUV
Chroma subsampling                       : 4:2:0
Bit depth                                : 8 bits
Scan type                                : Progressive
Compression mode                         : Lossy
Bits/(Pixel*Frame)                       : 0.143
Stream size                              : 1.76 GiB (94%)
Writing library                          : Lavc52.97.0

Audio
ID                                       : 1
Format                                   : MPEG Audio
Format version                           : Version 1
Format profile                           : Layer 3
Mode                                     : Joint stereo
Mode extension                           : MS Stereo
Codec ID                                 : 55
Codec ID/Hint                            : MP3
Duration                                 : 1h 45mn
Bit rate mode                            : Constant
Bit rate                                 : 128 Kbps
Channel(s)                               : 2 channels
Sampling rate                            : 48.0 KHz
Compression mode                         : Lossy
Stream size                              : 96.6 MiB (5%)
Alignment                                : Aligned on interleaves
Interleave, duration                     : 24 ms (0.58 video frame)
Writing library                          : LAME3.98.4






http://www37.zippyshare.com/v/90871472/file.html
http://www53.zippyshare.com/v/5026278/file.html
http://www34.zippyshare.com/v/14360730/file.html
http://www49.zippyshare.com/v/14651944/file.html
http://www68.zippyshare.com/v/24515067/file.html
http://www28.zippyshare.com/v/35715287/file.html
http://www44.zippyshare.com/v/57321534/file.html
http://www55.zippyshare.com/v/77538453/file.html
http://www7.zippyshare.com/v/68392112/file.html
http://www21.zippyshare.com/v/5833838/file.html
Emperador [HD 720p][VOSE][2012]
0 Puntos Score: 0/10
Visitas: 1208 Favoritos: 2
0 Comentarios Emperador [HD 720p][VOSE][2012]
Este post no tiene comentarios. Sea el primero!
Para dejar un comentario Registrate! o.. eres ya usuario? Accede!