Agosto [HD 720p][VOSE][2013]




He aquí una mirada profunda hacia la familia Weston. Los hijos, ya adultos y algunos próximos a la madurez, regresan a su casa natal de Oklahoma para reunirse con los padres. Este reencuentro provocará que salgan a relucir las tensiones todavía existentes con la madre (Meryl Streep), que siempre mostró un carácter complicado y disfuncional.



Título: Agosto: Condado de Osage
Título original: August: Osage County
Dirección: John Wells
País: Estados Unidos
Año: 2013
Fecha de estreno: 10/01/2014
Duración: 121 min
Género: Drama
Calificación: No recomendada para menores de 16 años
Reparto: Benedict Cumberbatch, Juliette Lewis, Ewan McGregor, Meryl Streep, Julia Roberts, Abigail Breslin, Dermot Mulroney, Chris Cooper, Sam Shepard, Julianne Nicholson
Distribuidora: DeA Planeta Home Entertainment
Productora: No disponible

General
Format                                   : AVI
Format/Info                              : Audio Video Interleave
Format profile                           : OpenDML
File size                                : 1.86 GiB
Duration                                 : 2h 0mn
Overall bit rate                         : 2 209 Kbps
Writing application                      : Lavf52.84.0

Video
ID                                       : 0
Format                                   : MPEG-4 Visual
Format profile                           : [email protected]
Format settings, BVOP                    : No
Format settings, QPel                    : No
Format settings, GMC                     : No warppoints
Format settings, Matrix                  : Default (H.263)
Codec ID                                 : XVID
Codec ID/Hint                            : XviD
Duration                                 : 2h 0mn
Bit rate                                 : 2 068 Kbps
Width                                    : 1 280 pixels
Height                                   : 538 pixels
Display aspect ratio                     : 2.40:1
Frame rate                               : 24.000 fps
Color space                              : YUV
Chroma subsampling                       : 4:2:0
Bit depth                                : 8 bits
Scan type                                : Progressive
Compression mode                         : Lossy
Bits/(Pixel*Frame)                       : 0.125
Stream size                              : 1.75 GiB (94%)
Writing library                          : Lavc52.97.0

Audio
ID                                       : 1
Format                                   : MPEG Audio
Format version                           : Version 1
Format profile                           : Layer 3
Mode                                     : Joint stereo
Mode extension                           : MS Stereo
Codec ID                                 : 55
Codec ID/Hint                            : MP3
Duration                                 : 2h 0mn
Bit rate mode                            : Constant
Bit rate                                 : 128 Kbps
Channel(s)                               : 2 channels
Sampling rate                            : 48.0 KHz
Compression mode                         : Lossy
Stream size                              : 111 MiB (6%)
Alignment                                : Aligned on interleaves
Interleave, duration                     : 24 ms (0.58 video frame)
Writing library                          : LAME3.98.4






http://www30.zippyshare.com/v/9083375/file.html
http://www71.zippyshare.com/v/59958440/file.html
http://www78.zippyshare.com/v/9819793/file.html
http://www58.zippyshare.com/v/30515250/file.html
http://www50.zippyshare.com/v/64507346/file.html
http://www25.zippyshare.com/v/63413714/file.html
http://www12.zippyshare.com/v/20077527/file.html
http://www25.zippyshare.com/v/69660000/file.html
http://www48.zippyshare.com/v/35046062/file.html
http://www23.zippyshare.com/v/57501852/file.html
Agosto [HD 720p][VOSE][2013]
0 Puntos Score: 0/10
Visitas: 1418 Favoritos: 1
1 Comentarios Agosto [HD 720p][VOSE][2013]
podes volver a subirla??? gracias!!!
Para dejar un comentario Registrate! o.. eres ya usuario? Accede!