Agosto [BRSCR][Castellano][2014]




He aquí una mirada profunda hacia la familia Weston. Los hijos, ya adultos y algunos próximos a la madurez, regresan a su casa natal de Oklahoma para reunirse con los padres. Este reencuentro provocará que salgan a relucir las tensiones todavía existentes con la madre (Meryl Streep), que siempre mostró un carácter complicado y disfuncional.



Título: Agosto: Condado de Osage
Título original: August: Osage County
Dirección: John Wells
País: Estados Unidos
Año: 2013
Fecha de estreno: 10/01/2014
Duración: 121 min
Género: Drama
Calificación: No recomendada para menores de 16 años
Reparto: Benedict Cumberbatch, Juliette Lewis, Ewan McGregor, Meryl Streep, Julia Roberts, Abigail Breslin, Dermot Mulroney, Chris Cooper, Sam Shepard, Julianne Nicholson
Distribuidora: DeA Planeta Home Entertainment
Productora: No disponible

General
Format                                   : MPEG-4
Format profile                           : Base Media
Codec ID                                 : isom
File size                                : 599 MiB
Duration                                 : 1h 39mn
Overall bit rate mode                    : Variable
Overall bit rate                         : 839 Kbps
Album                                    : Sin.Escalas.NON.STOP.TSHQ.VOSE
Writing application                      : Lavf54.63.104

Video
ID                                       : 1
Format                                   : AVC
Format/Info                              : Advanced Video Codec
Format profile                           : [email protected]
Format settings, CABAC                   : Yes
Format settings, ReFrames                : 4 frames
Codec ID                                 : avc1
Codec ID/Info                            : Advanced Video Coding
Duration                                 : 1h 39mn
Bit rate                                 : 750 Kbps
Width                                    : 720 pixels
Height                                   : 320 pixels
Display aspect ratio                     : 2.2:1
Frame rate mode                          : Constant
Frame rate                               : 23.976 fps
Color space                              : YUV
Chroma subsampling                       : 4:2:0
Bit depth                                : 8 bits
Scan type                                : Progressive
Bits/(Pixel*Frame)                       : 0.136
Stream size                              : 537 MiB (90%)
Writing library                          : x264 core 120 r2151 a3f4407
Encoding settings                        : cabac=1 / ref=3 / deblock=1:0:0 / analyse=0x3:0x113 / me=hex / subme=7 / psy=1 / psy_rd=1.00:0.00 / mixed_ref=1 / me_range=16 / chroma_me=1 / trellis=1 / 8x8dct=1 / cqm=0 / deadzone=21,11 / fast_pskip=1 / chroma_qp_offset=-2 / threads=16 / sliced_threads=0 / nr=0 / decimate=1 / interlaced=0 / bluray_compat=0 / constrained_intra=0 / bframes=3 / b_pyramid=2 / b_adapt=1 / b_bias=0 / direct=1 / weightb=1 / open_gop=0 / weightp=2 / keyint=25 / keyint_min=2 / scenecut=40 / intra_refresh=0 / rc_lookahead=25 / rc=abr / mbtree=1 / bitrate=750 / ratetol=1.0 / qcomp=0.60 / qpmin=0 / qpmax=69 / qpstep=4 / ip_ratio=1.40 / aq=1:1.00

Audio
ID                                       : 2
Format                                   : AAC
Format/Info                              : Advanced Audio Codec
Format profile                           : LC
Codec ID                                 : 40
Duration                                 : 1h 39mn
Duration_LastFrame                       : -32ms
Bit rate mode                            : Variable
Bit rate                                 : 82.7 Kbps
Maximum bit rate                         : 128 Kbps
Channel(s)                               : 2 channels
Channel positions                        : Front: L R
Sampling rate                            : 24.0 KHz
Compression mode                         : Lossy
Stream size                              : 59.1 MiB (10%)






http://www4.zippyshare.com/v/71688995/file.html
http://www22.zippyshare.com/v/79289110/file.html
http://www68.zippyshare.com/v/42409394/file.html
http://www15.zippyshare.com/v/10991659/file.html
http://www41.zippyshare.com/v/19239825/file.html
http://www50.zippyshare.com/v/15983309/file.html
http://www74.zippyshare.com/v/8805405/file.html
http://www18.zippyshare.com/v/61309300/file.html
http://www72.zippyshare.com/v/26558339/file.html
http://www32.zippyshare.com/v/18875629/file.html
Agosto [BRSCR][Castellano][2014]
0 Puntos Score: 0/10
Visitas: 1014 Favoritos: 0
2 Comentarios Agosto [BRSCR][Castellano][2014]
Buen aporte, gracias
Para dejar un comentario Registrate! o.. eres ya usuario? Accede!